JAPAN SUFFERING

EL MEJOR FORO DE DESCARGAS DE MUSICA, JUEGOS Y VIDEOS.

JAPAN SUFFERING FORO DE CALIDAD Y CANTIDAD, SOMOS MAS QUE SOLO UN FORO...

    Seventh Son [2014] 3D H-SBS 1080p [Ing-Lat]

    Comparte

    pomposos
    JS Guest
    JS Guest

    Mensajes : 5972
    Reputación : 0
    Fecha de inscripción : 29/10/2013

    Seventh Son [2014] 3D H-SBS 1080p [Ing-Lat]

    Mensaje por pomposos el Vie Ago 11, 2017 2:58 pm




    Titulo original: Seventh Son
    Ano: 2014
    Duracion: 102 min.
    Pais: Reino Unido
    Director: Sergey Bodrov
    Guion: Charles Leavitt, Matt Greenberg (Libro: Joseph Delaney)
    Musica: Marco Beltrami
    Fotografia: Newton Thomas Sigel
    Reparto: Jeff Bridges, Julianne Moore, Ben Barnes, Kit Harington, Alicia Vikander, Lilah Fitzgerald, Antje Traue, Olivia Williams, Djimon Hounsou, Jason Scott Lee, David Cubitt, Timothy Webber, Billy Wickman, Gerard Plunkett, Eric Keenleyside, Julian Black Antelope
    Productora: Coproduccion Reino Unido-Estados Unidos; WB / Legendary Pictures / Pendle Mountain Productions / Thunder Road Pictures
    Genero: Fantastico. Aventuras | Cine familiar. Posesiones/Exorcismos. Brujeria. Magia. Siglo XVIII
    Sinopsis: El Maestro Gregory es un caballero que siglos atras capturo a la malefica y poderosa bruja Madre Malkin. Pero la bruja consiguio escapar y prepara su venganza. Tras convocar a todos sus seguidores, Malkin decide actuar. Mientras, el Maestro Gregory se propone ensenar en un tiempo record a su joven aprendiz Tom Ward a luchar contra la magia negra.
    Código:
    http://www.imdb.com/title/tt1121096/
    Trailer
    [Tienes que estar registrado y conectado para ver este vínculo]


    General
    Format : Matroska
    Format version : Version 4 / Version 2
    File size : 10.3 GiB
    Duration : 1h 41mn
    Overall bit rate : 14.4 Mbps
    Encoded date : UTC 2015-04-26 20:54:36
    Writing application : mkvmerge v7.1.0 (Good Love) 64bit built on Jul 27 2014 13:06:55
    Writing library : libebml v1.3.0 + libmatroska v1.4.1
    Video
    ID : 1
    Format : AVC
    Format/Info : Advanced Video Codec
    Format profile : High@L4.1
    Format settings, CABAC : Yes
    Format settings, ReFrames : 2 frames
    Codec ID : V_MPEG4/ISO/AVC
    Duration : 1h 41mn
    Bit rate : 10.6 Mbps
    Width : 1 920 pixels
    Height : 800 pixels
    Display aspect ratio : 2.40:1
    Frame rate mode : Constant
    Frame rate : 23.976 fps
    Color space : YUV
    Chroma subsampling : 4:2:0
    Bit depth : 8 bits
    Scan type : Progressive
    Bits/(Pixel*Frame) : 0.287
    Stream size : 7.54 GiB (73%)
    Writing library : x264 core
    Language : English
    Default : Yes
    Forced : No
    Color primaries : BT.709
    Transfer characteristics : BT.709
    Matrix coefficients : BT.709
    Audio #1
    ID : 2
    Format : DTS
    Format/Info : Digital Theater Systems
    Mode : 16
    Format settings, Endianness : Big
    Codec ID : A_DTS
    Duration : 1h 41mn
    Bit rate mode : Constant
    Bit rate : 768 Kbps
    Channel(s) : 6 channels
    Channel positions : Front: L C R, Side: L R, LFE
    Sampling rate : 48.0 KHz
    Bit depth : 24 bits
    Compression mode : Lossy
    Stream size : 560 MiB (5%)
    Title : Seventh Son (2014) - DTS 5.1 - 768 Kbps (Blu-ray)
    Language : Spanish
    Default : Yes
    Forced : No
    Audio #2
    ID : 3
    Format : AC-3
    Format/Info : Audio Coding 3
    Mode extension : CM (complete main)
    Format settings, Endianness : Big
    Codec ID : A_AC3
    Duration : 1h 41mn
    Bit rate mode : Constant
    Bit rate : 640 Kbps
    Channel(s) : 6 channels
    Channel positions : Front: L C R, Side: L R, LFE
    Sampling rate : 48.0 KHz
    Bit depth : 16 bits
    Compression mode : Lossy
    Stream size : 467 MiB (4%)
    Title : Seventh Son (2014) - AC3 5.1 - 640 Kbps (Blu-ray)
    Language : Spanish
    Default : No
    Forced : No
    Audio #3
    ID : 4
    Format : DTS
    Format/Info : Digital Theater Systems
    Mode : 16
    Format settings, Endianness : Big
    Codec ID : A_DTS
    Duration : 1h 41mn
    Bit rate mode : Constant
    Bit rate : 1 509 Kbps
    Channel(s) : 6 channels
    Channel positions : Front: L C R, Side: L R, LFE
    Sampling rate : 48.0 KHz
    Bit depth : 24 bits
    Compression mode : Lossy
    Stream size : 1.08 GiB (10%)
    Title : Seventh Son (2014) - DTS 5.1 - 1509 Kbps
    Language : English
    Default : No
    Forced : No
    Audio #4
    ID : 5
    Format : AC-3
    Format/Info : Audio Coding 3
    Mode extension : CM (complete main)
    Format settings, Endianness : Big
    Codec ID : A_AC3
    Duration : 1h 41mn
    Bit rate mode : Constant
    Bit rate : 640 Kbps
    Channel(s) : 6 channels
    Channel positions : Front: L C R, Side: L R, LFE
    Sampling rate : 48.0 KHz
    Bit depth : 16 bits
    Compression mode : Lossy
    Stream size : 467 MiB (4%)
    Title : Seventh Son (2014) - AC3 5.1 - 640 Kbps
    Language : English
    Default : No
    Forced : No
    Text #1
    ID : 6
    Format : UTF-8
    Codec ID : S_TEXT/UTF8
    Codec ID/Info : UTF-8 Plain Text
    Title : Seventh Son (2014) - Subt Forz
    Language : Spanish
    Default : Yes
    Forced : No
    Text #2
    ID : 7
    Format : UTF-8
    Codec ID : S_TEXT/UTF8
    Codec ID/Info : UTF-8 Plain Text
    Title : Seventh Son (2014) - Subt
    Language : Spanish
    Default : No
    Forced : No








    Uploadgig, Rapidgator

    **Todos los Enlaces Estan en Lupaste:

    [Tienes que estar registrado y conectado para ver este vínculo]

      Fecha y hora actual: Miér Dic 13, 2017 5:02 pm