JAPAN SUFFERING

EL MEJOR FORO DE DESCARGAS DE MUSICA, JUEGOS Y VIDEOS.

JAPAN SUFFERING FORO DE CALIDAD Y CANTIDAD, SOMOS MAS QUE SOLO UN FORO...

    Marley & Me [2008] FullHD 1080p [Ing-Lat]

    Comparte

    pomposos
    JS Guest
    JS Guest

    Mensajes : 5619
    Reputación : 0
    Fecha de inscripción : 29/10/2013

    Marley & Me [2008] FullHD 1080p [Ing-Lat]

    Mensaje por pomposos el Vie Oct 06, 2017 4:51 pm




    Título original: Marley & Me
    Año: 2008
    Duración: 120 min.
    País: Estados Unidos
    Director: David Frankel
    Guión: Scott Frank, Don Roos (Libro: John Grogan)
    Música: Theodore Shapiro
    Fotografía: Florian Ballhaus
    Reparto: Owen Wilson, Jennifer Aniston, Alan Arkin, Eric Dane, Kathleen Turner, Nathan Gamble, Haley Bennett, Finley Jacobsen
    Productora: Fox 2000 Pictures / Regency Entreprises
    Género: Romance. Comedia. Drama | Comedia dramática. Comedia romántica. Animales. Perros/Lobos. Familia. Periodismo
    Sinopsis: Los recién casados John y Jenny Grogan deciden dejar atrás los duros inviernos de Michigan para instalarse en la soleada West Palm Beach (Florida). Los dos consiguen empleo en dos periódicos rivales, compran su primera casa y afrontan los retos del matrimonio. Cuando John le confiesa a su amigo y colega Sebastian que aún no se siente preparado para ser padre, éste le sugiere que le regale a Jenny un perro. Los Grogan adoptan un bonito cachorro de Labrador que, poco después, se convierte en una mole de 45 kilos que transforma la casa en una verdadera catástrofe.
    Código:
    http://www.imdb.com/title/tt0822832/
    Trailer
    [Tienes que estar registrado y conectado para ver este vínculo]


    Format : Matroska
    Format version : Version 4 / Version 2
    File size : 12.4 GiB
    Duration : 1 h 55 min
    Overall bit rate : 15.3 Mb/s
    Encoded date : UTC 2017-09-16 00:49:54
    Writing application : mkvmerge v15.0.0 ('Duel with the Devil') 64-bit
    Writing library : libebml v1.3.5 + libmatroska v1.4.5
    Video
    ID : 1
    Format : AVC
    Format/Info : Advanced Video Codec
    Format profile : High@L4.1
    Format settings, CABAC : Yes
    Format settings, ReFrames : 4 frames
    Codec ID : V_MPEG4/ISO/AVC
    Duration : 1 h 55 min
    Bit rate : 13.4 Mb/s
    Width : 1 920 pixels
    Height : 816 pixels
    Display aspect ratio : 2.35:1
    Frame rate mode : Constant
    Frame rate : 23.976 FPS
    Color space : YUV
    Chroma subsampling : 4:2:0
    Bit depth : 8 bits
    Scan type : Progressive
    Bits/(Pixel*Frame) : 0.355
    Stream size : 10.8 GiB (87%)
    Title : Marley & Me (2008) 1080p
    Writing library : x264 core 116 r2074 2641b9e
    Language : English
    Default : Yes
    Forced : No
    Audio #1
    ID : 2
    Format : AC-3
    Format/Info : Audio Coding 3
    Mode extension : CM (complete main)
    Format settings, Endianness : Big
    Codec ID : A_AC3
    Duration : 1 h 55 min
    Bit rate mode : Constant
    Bit rate : 448 kb/s
    Channel(s) : 6 channels
    Channel positions : Front: L C R, Side: L R, LFE
    Sampling rate : 48.0 kHz
    Frame rate : 31.250 FPS (1536 spf)
    Bit depth : 16 bits
    Compression mode : Lossy
    Stream size : 370 MiB (3%)
    Title : AC 3-(5.1) BluRay
    Language : Latin Spanish
    Default : Yes
    Forced : No
    Audio #2
    ID : 3
    Format : DTS
    Format/Info : Digital Theater Systems
    Mode : 16
    Format settings, Endianness : Big
    Codec ID : A_DTS
    Duration : 1 h 55 min
    Bit rate mode : Constant
    Bit rate : 1 510 kb/s
    Channel(s) : 6 channels
    Channel positions : Front: L C R, Side: L R, LFE
    Sampling rate : 48.0 kHz
    Frame rate : 93.750 FPS (512 spf)
    Bit depth : 24 bits
    Compression mode : Lossy
    Stream size : 1.22 GiB (10%)
    Title : DTS-(5.1) BluRay
    Language : English
    Default : No
    Forced : No
    Text
    ID : 4
    Format : UTF-8
    Codec ID : S_TEXT/UTF8
    Codec ID/Info : UTF-8 Plain Text
    Duration : 1 h 51 min
    Bit rate : 78 b/s
    Count of elements : 1715
    Stream size : 63.7 KiB (0%)
    Language : Spanish
    Default : No
    Forced : No







    [Tienes que estar registrado y conectado para ver este vínculo]

      Fecha y hora actual: Miér Oct 18, 2017 1:55 am