JAPAN SUFFERING

EL MEJOR FORO DE DESCARGAS DE MUSICA, JUEGOS Y VIDEOS.

JAPAN SUFFERING FORO DE CALIDAD Y CANTIDAD, SOMOS MAS QUE SOLO UN FORO...

    Jurassic Park [1993] 3D H-SBS 1080p [Ing-Lat]

    Comparte

    pomposos
    JS Guest
    JS Guest

    Mensajes : 5972
    Reputación : 0
    Fecha de inscripción : 29/10/2013

    Jurassic Park [1993] 3D H-SBS 1080p [Ing-Lat]

    Mensaje por pomposos el Sáb Oct 28, 2017 9:12 pm




    TITULO ORIGINAL: Jurassic Park
    ANO: 1993
    DURACION: 120 min.
    PAIS: USA
    DIRECTOR: Steven Spielberg
    GUION: David Koepp & Michael Crichton (Novela: Michael Crichton)
    REPARTO: Sam Neill, Laura Dern, Jeff Goldblum, Richard Attenborough, Ariana Richards, Joseph Mazzello, Wayne Knight, Samuel L. Jackson, Bob Peck, Martin Ferrero, B.D. Wong
    PRODUCTORA: Universal Pictures/ Amblin Entertainment
    GENERO: Ciencia ficcion. Aventuras. Thriller | Dinosaurios
    Sinopsis: El multimillonario John Hammond consigue hacer realidad su sueno de clonar dinosaurios del Jurasico y crear con ellos un parque tematico en una isla remota. Antes de abrirlo al publico, invita a una pareja de eminentes cientificos y a un matematico para que comprueben la viabilidad del proyecto. Pero las medidas de seguridad del parque no preven el instinto de supervivencia de la madre naturaleza ni la codicia humana.
    [Tienes que estar registrado y conectado para ver este vínculo]
    Trailer
    [Tienes que estar registrado y conectado para ver este vínculo]



    General
    Format : Matroska
    Format version : Version 3 / Version 2
    File size : 12.5 GiB
    Duration : 2h 6mn
    Overall bit rate : 14.1 Mbps
    Encoded date : UTC 2013-04-26 02:40:21
    Writing application : mkvmerge v5.7.0 (The Whirlwind) built on Jul 8 2012 20:08:51
    Writing library : libebml v1.2.3 + libmatroska v1.3.0
    Video
    ID : 1
    Format : AVC
    Format/Info : Advanced Video Codec
    Format profile : High@L4.1
    MultiView_Count : 2
    MultiView_Layout : Side by Side (left eye first)
    Format settings, CABAC : Yes
    Format settings, ReFrames : 4 frames
    Codec ID : V_MPEG4/ISO/AVC
    Duration : 2h 6mn
    Bit rate : 11.0 Mbps
    Width : 1 920 pixels
    Height : 1 080 pixels
    Display aspect ratio : 16:9
    Frame rate mode : Constant
    Frame rate : 23.976 fps
    Color space : YUV
    Chroma subsampling : 4:2:0
    Bit depth : 8 bits
    Scan type : Progressive
    Bits/(Pixel*Frame) : 0.222
    Stream size : 9.79 GiB (78%)
    Writing library : x264 core 130 r2273 b3065e6
    Language : English
    Default : Yes
    Forced : No
    Audio #1
    ID : 2
    Format : AC-3
    Format/Info : Audio Coding 3
    Mode extension : CM (complete main)
    Format settings, Endianness : Big
    Codec ID : A_AC3
    Duration : 2h 6mn
    Bit rate mode : Constant
    Bit rate : 640 Kbps
    Channel(s) : 6 channels
    Channel positions : Front: L C R, Side: L R, LFE
    Sampling rate : 48.0 KHz
    Bit depth : 16 bits
    Compression mode : Lossy
    Delay relative to video : 2s 500ms
    Stream size : 581 MiB (5%)
    Title : AC3 5.1
    Language : Spanish
    Default : Yes
    Forced : No
    Audio #2
    ID : 3
    Format : AC-3
    Format/Info : Audio Coding 3
    Mode extension : CM (complete main)
    Format settings, Endianness : Big
    Codec ID : A_AC3
    Duration : 2h 6mn
    Bit rate mode : Constant
    Bit rate : 640 Kbps
    Channel(s) : 6 channels
    Channel positions : Front: L C R, Side: L R, LFE
    Sampling rate : 48.0 KHz
    Bit depth : 16 bits
    Compression mode : Lossy
    Stream size : 581 MiB (5%)
    Title : AC3 5.1
    Language : English
    Default : No
    Forced : No
    Audio #3
    ID : 4
    Format : DTS
    Format/Info : Digital Theater Systems
    Mode : 16
    Format settings, Endianness : Big
    Codec ID : A_DTS
    Duration : 2h 6mn
    Bit rate mode : Constant
    Bit rate : 1 509 Kbps
    Channel(s) : 6 channels
    Channel positions : Front: L C R, Side: L R, LFE
    Sampling rate : 48.0 KHz
    Bit depth : 24 bits
    Compression mode : Lossy
    Stream size : 1.34 GiB (11%)
    Title : DTS 5.1
    Language : English
    Default : No
    Forced : No
    Text #1
    ID : 5
    Format : UTF-8
    Codec ID : S_TEXT/UTF8
    Codec ID/Info : UTF-8 Plain Text
    Title : Forz
    Language : Spanish
    Default : Yes
    Forced : No
    Text #2
    ID : 6
    Format : UTF-8
    Codec ID : S_TEXT/UTF8
    Codec ID/Info : UTF-8 Plain Text
    Language : Spanish
    Default : No
    Forced : No







    Buy Premium Account To Get High Speed Download
    [Tienes que estar registrado y conectado para ver este vínculo]

      Fecha y hora actual: Miér Jun 20, 2018 3:07 pm