JAPAN SUFFERING

EL MEJOR FORO DE DESCARGAS DE MUSICA, JUEGOS Y VIDEOS.

JAPAN SUFFERING FORO DE CALIDAD Y CANTIDAD, SOMOS MAS QUE SOLO UN FORO...

    31 (2016)(FullHD 1080)(Ing)

    Comparte

    pomposos
    JS Guest
    JS Guest

    Mensajes : 5972
    Reputación : 0
    Fecha de inscripción : 29/10/2013

    31 (2016)(FullHD 1080)(Ing)

    Mensaje por pomposos el Lun Mar 06, 2017 6:58 am




    Titulo original: 31
    Ano: 2016
    Duracion: 102 min.
    Pais: Estados Unidos
    Director: Rob Zombie
    Reparto: Elizabeth Daily, Malcolm McDowell, Torsten Voges, Daniel Roebuck, Sheri Moon Zombie, Meg Foster, Lawrence Hilton-Jacobs, Devin Sidell, Judy Geeson, Ginger Lynn, David Ury, Esperanza America
    Productora: Bow and Arrow Entertainment / Protagonist Pictures / Spectacle Entertainment
    Genero: Terror. Thriller | Anos 70. Secuestros / Desapariciones. Gore. Asesinos en serie. Slasher
    Sinopsis: Cinco personas son secuestradas en los dias previos a Halloween y mantenidos como rehenes en un lugar llamado Murder World. Mientras estan atrapados, deben jugar un juego violento llamado 31, donde la mision es sobrevivir 12 horas contra una pandilla de payasos malvados.

    [center]
    Código:

    Format : Matroska
    Format version : Version 4 / Version 2
    File size : 3.59 GiB
    Duration : 1h 43mn
    Overall bit rate : 4 987 Kbps
    Movie name : 31 (2016) 1080p WEB-DL Ingles
    Encoded date : UTC 2016-09-19 14:55:10
    Writing application : mkvmerge v7.1.0 ('Good Love') 64bit built on Jul 27 2014 13:06:55
    Writing library : libebml v1.3.0 + libmatroska v1.4.1

    Video
    ID : 1
    Format : AVC
    Format/Info : Advanced Video Codec
    Format profile : High@L4.0
    Format settings, CABAC : Yes
    Format settings, ReFrames : 5 frames
    Codec ID : V_MPEG4/ISO/AVC
    Duration : 1h 43mn
    Bit rate : 4 504 Kbps
    Width : 1 908 pixels
    Height : 788 pixels
    Display aspect ratio : 2.40:1
    Frame rate mode : Constant
    Frame rate : 23.976 fps
    Color space : YUV
    Chroma subsampling : 4:2:0
    Bit depth : 8 bits
    Scan type : Progressive
    Bits/(Pixel*Frame) : 0.125
    Stream size : 3.25 GiB (90%)
    Title : 31 (2016) 1080p
    Language : English
    Default : Yes
    Forced : No
    Audio #1
    ID : 2
    Format : AC-3
    Format/Info : Audio Coding 3
    Mode extension : CM (complete main)
    Format settings, Endianness : Big
    Codec ID : A_AC3
    Duration : 1h 43mn
    Bit rate mode : Constant
    Bit rate : 384 Kbps
    Channel(s) : 6 channels
    Channel positions : Front: L C R, Side: L R, LFE
    Sampling rate : 48.0 KHz
    Bit depth : 16 bits
    Compression mode : Lossy
    Stream size : 283 MiB (8%)
    Title : AC3 5.1
    Language : English
    Default : Yes
    Forced : No
    Text
    ID : 3
    Format : UTF-8
    Codec ID : S_TEXT/UTF8
    Codec ID/Info : UTF-8 Plain Text
    Language : Spanish
    Default : Yes
    Forced : No









    Código:

    https://www.bigfile.to/file/Nwkr58u9pzbh/31movghd.part01.rar
    https://www.bigfile.to/file/dgvqvEYde6ED/31movghd.part02.rar
    https://www.bigfile.to/file/cc59PspthBu2/31movghd.part03.rar
    https://www.bigfile.to/file/QCuDNjk6rpTD/31movghd.part04.rar
    https://www.bigfile.to/file/Z9PKQGSJHKWt/31movghd.part05.rar
    https://www.bigfile.to/file/v4S9JcU6ecbk/31movghd.part06.rar
    https://www.bigfile.to/file/Fhn8ED6fw9vS/31movghd.part07.rar
    https://www.bigfile.to/file/gXNXspVuWwhb/31movghd.part08.rar
    https://www.bigfile.to/file/6cTMpeHkBep4/31movghd.part09.rar
    https://www.bigfile.to/file/WMYzDku5c4wX/31movghd.part10.rar
    https://www.bigfile.to/file/F7ZupywAaxCQ/31movghd.part11.rar
    https://www.bigfile.to/file/m9W9HV4ZKPhb/31movghd.part12.rar
    https://www.bigfile.to/file/FDbAX8kVSa2T/31movghd.part13.rar
    https://www.bigfile.to/file/SMhCyveU7mXK/31movghd.part14.rar
    https://www.bigfile.to/file/bgGQ4EdgSqbN/31movghd.part15.rar

      Fecha y hora actual: Vie Dic 15, 2017 9:44 pm