JAPAN SUFFERING

EL MEJOR FORO DE DESCARGAS DE MUSICA, JUEGOS Y VIDEOS.

JAPAN SUFFERING FORO DE CALIDAD Y CANTIDAD, SOMOS MAS QUE SOLO UN FORO...

    300 Rise of an Empire (2014)(3D H-SBS 1080p)(Ing-Lat)

    Comparte

    pomposos
    JS Guest
    JS Guest

    Mensajes : 5619
    Reputación : 0
    Fecha de inscripción : 29/10/2013

    300 Rise of an Empire (2014)(3D H-SBS 1080p)(Ing-Lat)

    Mensaje por pomposos el Lun Mar 06, 2017 7:06 am




    TITULO ORIGINAL: 300: Rise of an Empire
    ANO: 2014
    DURACION: 102 min.
    PAIS: USA
    DIRECTOR: Noam Murro
    GUION: Zack Snyder, Kurt Johnstad (Novela grafica: Frank Miller)
    REPARTO: Sullivan Stapleton, Eva Green, Rodrigo Santoro, Lena Headey, Jack O'Connell, Andrew Tiernan, David Wenham, Callan Mulvey, Andrew Pleavin, Yigal Naor, Ashraf Barhom, Vincent Walsh, Steven Cree, Trayan Milenov-Troy, Andrei Claude, Peter Ferdinando, Mark Killeen, Peter Mensah
    PRODUCTORA: Atmosphere Entertainment MM / Cruel & Unusual Films / Hollywood Gang Productions / Legendary Pictures / Warner Bros. Pictures
    GENERO: Accion. Belico | Antigua Grecia. Cine epico. Secuela. Spin-off. Comic. 3-D
    Guerras medicas (500-479 a.C.). El general griego Temistocles lucha por conseguir la unidad de las polis griegas. El dirige las tropas griegas que se enfrentan con el ejercito persa, liderado por Xerxes y Artemisa, para impedir la invasion del pais. Spin-off de la pelicula/comic 300, basado en la novela grafica "Xerxes", de Frank Miller.

    Código:

    General
    Format                                  : Matroska
    Format version                          : Version 2
    File size                                : 12.4 GiB
    Duration                                : 1h 42mn
    Overall bit rate                        : 17.3 Mbps
    Encoded date                            : UTC 2014-06-06 15:48:58
    Writing application                      : mkvmerge v5.7.0 ('The Whirlwind') built on Jul  8 2012 20:08:51
    Writing library                          : libebml v1.2.3 + libmatroska v1.3.0
    Video
    ID                                      : 1
    Format                                  : AVC
    Format/Info                              : Advanced Video Codec
    Format profile                          : High@L4.1
    Format settings, CABAC                  : Yes
    Format settings, ReFrames                : 4 frames
    Format settings, GOP                    : M=7, N=9
    Muxing mode                              : Header stripping
    Codec ID                                : V_MPEG4/ISO/AVC
    Duration                                : 1h 42mn
    Bit rate                                : 14.4 Mbps
    Width                                    : 1 920 pixels
    Height                                  : 1 080 pixels
    Display aspect ratio                    : 16:9
    Frame rate mode                          : Constant
    Frame rate                              : 23.976 fps
    Color space                              : YUV
    Chroma subsampling                      : 4:2:0
    Bit depth                                : 8 bits
    Scan type                                : Progressive
    Bits/(Pixel*Frame)                      : 0.289
    Stream size                              : 10.3 GiB (83%)
    Title                                    : www.club-hd.com
    Writing library                          : x264 core 133 r2334 a3ac64b
    Language                                : English
    Default                                  : Yes
    Forced                                  : No
    Audio #1
    ID                                      : 2
    Format                                  : AC-3
    Format/Info                              : Audio Coding 3
    Mode extension                          : CM (complete main)
    Format settings, Endianness              : Big
    Muxing mode                              : Header stripping
    Codec ID                                : A_AC3
    Duration                                : 1h 42mn
    Bit rate mode                            : Constant
    Bit rate                                : 448 Kbps
    Channel(s)                              : 6 channels
    Channel positions                        : Front: L C R, Side: L R, LFE
    Sampling rate                            : 48.0 KHz
    Bit depth                                : 16 bits
    Compression mode                        : Lossy
    Stream size                              : 329 MiB (3%)
    Title                                    : AC3 5.1
    Language                                : Spanish
    Default                                  : Yes
    Forced                                  : No
    Audio #2
    ID                                      : 3
    Format                                  : AC-3
    Format/Info                              : Audio Coding 3
    Mode extension                          : CM (complete main)
    Format settings, Endianness              : Big
    Muxing mode                              : Header stripping
    Codec ID                                : A_AC3
    Duration                                : 1h 42mn
    Bit rate mode                            : Constant
    Bit rate                                : 640 Kbps
    Channel(s)                              : 6 channels
    Channel positions                        : Front: L C R, Side: L R, LFE
    Sampling rate                            : 48.0 KHz
    Bit depth                                : 16 bits
    Compression mode                        : Lossy
    Stream size                              : 470 MiB (4%)
    Title                                    : AC3 5.1
    Language                                : English
    Default                                  : No
    Forced                                  : No
    Audio #3
    ID                                      : 4
    Format                                  : DTS
    Format/Info                              : Digital Theater Systems
    Mode                                    : 16
    Format settings, Endianness              : Big
    Muxing mode                              : Header stripping
    Codec ID                                : A_DTS
    Duration                                : 1h 42mn
    Bit rate mode                            : Constant
    Bit rate                                : 1 509 Kbps
    Channel(s)                              : 6 channels
    Channel positions                        : Front: L C R, Side: L R, LFE
    Sampling rate                            : 48.0 KHz
    Bit depth                                : 24 bits
    Compression mode                        : Lossy
    Stream size                              : 1.08 GiB (9%)
    Title                                    : DTS 5.1
    Language                                : English
    Default                                  : No
    Forced                                  : No
    Text
    ID                                      : 5
    Format                                  : VobSub
    Muxing mode                              : zlib
    Codec ID                                : S_VOBSUB
    Codec ID/Info                            : The same subtitle format used on DVDs
    Language                                : Spanish
    Default                                  : No
    Forced                                  : No









    Código:

    https://www.bigfile.to/file/vCAwD5sQV5PQ/300riemphd.part01.rar
    https://www.bigfile.to/file/xaedZ9RcKkAB/300riemphd.part02.rar
    https://www.bigfile.to/file/CPbSn2Ca6tW2/300riemphd.part03.rar
    https://www.bigfile.to/file/xGy6CvfKXzyw/300riemphd.part04.rar
    https://www.bigfile.to/file/Jq4cWe8tpR6S/300riemphd.part05.rar
    https://www.bigfile.to/file/gdYkEEnpJnhH/300riemphd.part06.rar
    https://www.bigfile.to/file/eH5PheDKpFNY/300riemphd.part07.rar
    https://www.bigfile.to/file/Kqp2jAZNAS8Y/300riemphd.part08.rar
    https://www.bigfile.to/file/AbGeznrxY2pV/300riemphd.part09.rar
    https://www.bigfile.to/file/THbsMFedgHbd/300riemphd.part10.rar
    https://www.bigfile.to/file/DGM7PXXf4uW9/300riemphd.part11.rar
    https://www.bigfile.to/file/su3tFvDAbRHJ/300riemphd.part12.rar
    https://www.bigfile.to/file/KczB537rf2GP/300riemphd.part13.rar
    https://www.bigfile.to/file/bpeHEvAtpGQv/300riemphd.part14.rar
    https://www.bigfile.to/file/x35Tm54a7b5S/300riemphd.part15.rar
    https://www.bigfile.to/file/E3pHfQnXntDB/300riemphd.part16.rar
    https://www.bigfile.to/file/RsRMtFaAnnp5/300riemphd.part17.rar
    https://www.bigfile.to/file/bk4v69WESjyf/300riemphd.part18.rar
    https://www.bigfile.to/file/RkCK2sFCNWCK/300riemphd.part19.rar
    https://www.bigfile.to/file/tFSnYUd75dAP/300riemphd.part20.rar
    https://www.bigfile.to/file/9FNXh2mXabvV/300riemphd.part21.rar
    https://www.bigfile.to/file/snQ8vWp7NWUP/300riemphd.part22.rar
    https://www.bigfile.to/file/WwXfbyesWZPF/300riemphd.part23.rar
    https://www.bigfile.to/file/b4P2p2Kb3y3H/300riemphd.part24.rar
    https://www.bigfile.to/file/CFzk2rp7crna/300riemphd.part25.rar
    https://www.bigfile.to/file/FUfDyNYS7K5T/300riemphd.part26.rar
    https://www.bigfile.to/file/s8Ytw6ffmZgK/300riemphd.part27.rar
    https://www.bigfile.to/file/nAUj2z8es2Fh/300riemphd.part28.rar
    https://www.bigfile.to/file/gk6UgtvJZKcX/300riemphd.part29.rar
    https://www.bigfile.to/file/CfeNASdmxTx2/300riemphd.part30.rar
    https://www.bigfile.to/file/EzTfbDZ7yM8A/300riemphd.part31.rar
    https://www.bigfile.to/file/XtSQRPbyrxNG/300riemphd.part32.rar
    https://www.bigfile.to/file/AQSDrtEBGhnq/300riemphd.part33.rar
    https://www.bigfile.to/file/fSt9aQkgE6Vc/300riemphd.part34.rar
    https://www.bigfile.to/file/vRtbsAVkUt35/300riemphd.part35.rar
    https://www.bigfile.to/file/wHyKPEBbjtBn/300riemphd.part36.rar
    https://www.bigfile.to/file/uccFYR4G4NTu/300riemphd.part37.rar
    https://www.bigfile.to/file/TBfAP2yCpWew/300riemphd.part38.rar
    https://www.bigfile.to/file/ZtFjrsQczW68/300riemphd.part39.rar
    https://www.bigfile.to/file/Ccb7dBBZcgj4/300riemphd.part40.rar
    https://www.bigfile.to/file/GCJdqKRz7wW4/300riemphd.part41.rar
    https://www.bigfile.to/file/GQ9SAacb6d4n/300riemphd.part42.rar
    https://www.bigfile.to/file/CnbAV7UxsgHD/300riemphd.part43.rar
    https://www.bigfile.to/file/zQ4UhfjFJcME/300riemphd.part44.rar
    https://www.bigfile.to/file/JTQXPFC2wtrX/300riemphd.part45.rar
    https://www.bigfile.to/file/75mEWyEs23Eg/300riemphd.part46.rar
    https://www.bigfile.to/file/dg4v3fRYeGAZ/300riemphd.part47.rar
    https://www.bigfile.to/file/tZZB7xQZ87MH/300riemphd.part48.rar
    https://www.bigfile.to/file/CMVrTkrnYyXE/300riemphd.part49.rar
    https://www.bigfile.to/file/DmUMbk9ngVnS/300riemphd.part50.rar
    https://www.bigfile.to/file/Wh7HFPCrXSBQ/300riemphd.part51.rar

      Fecha y hora actual: Mar Oct 17, 2017 4:54 pm