JAPAN SUFFERING

EL MEJOR FORO DE DESCARGAS DE MUSICA, JUEGOS Y VIDEOS.

JAPAN SUFFERING FORO DE CALIDAD Y CANTIDAD, SOMOS MAS QUE SOLO UN FORO...

    About Cherry (2012)(FullHD 1080)(Ing-Lat)

    Comparte

    pomposos
    JS Guest
    JS Guest

    Mensajes : 5619
    Reputación : 0
    Fecha de inscripción : 29/10/2013

    About Cherry (2012)(FullHD 1080)(Ing-Lat)

    Mensaje por pomposos el Lun Mar 06, 2017 7:31 am



    Código:
    http://www.imdb.com/title/tt1945062/

    Titulo original About Cherry
    Ano 2012
    Duracion 102 min.
    Pais Estados Unidos
    Director Stephen Elliott
    Guion Lorelei Lee, Stephen Elliott
    Musica Jeff Russo
    Fotografia Darren Genet
    Reparto Ashley Hinshaw, Lili Taylor, Dev Patel, Jonny Weston, James Franco, Heather Graham, Diane Farr, Megan Boone, Ernest Waddell, Michael T Stewart
    Productora IFC Films / Enderby Entertainment / Gordon Bijelonic / Datari Turner Films
    Genero Drama | Cine dentro del cine
    Sinopsis Angelina (Ashley Hinshaw) es una atractiva joven de 18 anos, a punto de terminar el instituto, que accede a la sugerencia de su novio de hacerse una sesion de fotos por dinero. Con las ganancias decide marcharse con su mejor amigo (Dev Patel) a San Francisco. Alli conoce al abogado Frances (James Franco), que le ensena un mundo de glamour, fiestas y drogas, al tiempo que comienza a introducirse en la industria del porno de la ciudad californiana de la mano de Margaret (Heather Graham), una antigua actriz porno reconvertida en directora. Angelina en la industria del cine X se hara llamar "Cherry"

    Código:

    Format : Matroska
    Format version : Version 4 / Version 2
    File size : 2.59 GiB
    Duration : 1h 42mn
    Overall bit rate : 3 623 Kbps
    Movie name : About Cherry (2012) [FULL 1080p Dual]
    Encoded date : UTC 2013-12-10 03:11:44
    Writing application : mkvmerge v6.0.0 ('Coming Up For Air') built on Jan 20 2013 09:52:00
    Writing library : libebml v1.3.0 + libmatroska v1.4.0
    Video
    ID : 1
    Format : AVC
    Format/Info : Advanced Video Codec
    Format profile : Main@L4.0
    Format settings, CABAC : Yes
    Format settings, ReFrames : 4 frames
    Codec ID : V_MPEG4/ISO/AVC
    Duration : 1h 42mn
    Bit rate : 3 000 Kbps
    Width : 1 920 pixels
    Height : 1 080 pixels
    Display aspect ratio : 16:9
    Frame rate mode : Constant
    Frame rate : 23.976 fps
    Color space : YUV
    Chroma subsampling : 4:2:0
    Bit depth : 8 bits
    Scan type : Progressive
    Bits/(Pixel*Frame) : 0.060
    Stream size : 2.08 GiB (80%)
    Writing library : x264 core 130 r2273 b3065e6
    Default : Yes
    Forced : No
    Color primaries : BT.709
    Transfer characteristics : BT.709
    Matrix coefficients : BT.709
    Audio #1
    ID : 2
    Format : AC-3
    Format/Info : Audio Coding 3
    Mode extension : CM (complete main)
    Format settings, Endianness : Big
    Codec ID : A_AC3
    Duration : 1h 42mn
    Bit rate mode : Constant
    Bit rate : 320 Kbps
    Channel count : 2 channels
    Channel positions : Front: L C R, Side: L R, LFE
    Sampling rate : 44.1 KHz
    Bit depth : 16 bits
    Compression mode : Lossy
    Stream size : 234 MiB (9%)
    Title : Audio Latino
    Default : Yes
    Forced : No
    Audio #2
    ID : 3
    Format : AC-3
    Format/Info : Audio Coding 3
    Mode extension : CM (complete main)
    Format settings, Endianness : Big
    Codec ID : A_AC3
    Duration : 1h 42mn
    Bit rate mode : Constant
    Bit rate : 320 Kbps
    Channel count : 6 channels
    Channel positions : Front: L C R, Side: L R, LFE
    Sampling rate : 44.1 KHz
    Bit depth : 16 bits
    Compression mode : Lossy
    Stream size : 234 MiB (9%)
    Title : Audio Ingles
    Default : No
    Forced : No
    Text #1
    ID : 4
    Format : UTF-8
    Codec ID : S_TEXT/UTF8
    Codec ID/Info : UTF-8 Plain Text
    Title : Subtitulos Latino
    Default : No
    Forced : No
    Text #2
    ID : 5
    Format : UTF-8
    Codec ID : S_TEXT/UTF8
    Codec ID/Info : UTF-8 Plain Text
    Title : Subtitulos Ingles
    Default : No
    Forced : No
    Text #3
    ID : 6
    Format : UTF-8
    Codec ID : S_TEXT/UTF8
    Codec ID/Info : UTF-8 Plain Text
    Default : Yes
    Forced : No









    Código:

    https://www.bigfile.to/file/fNbY2fmgrdP5/aouchhd.part01.rar
    https://www.bigfile.to/file/Y5kwqJtSCmB3/aouchhd.part02.rar
    https://www.bigfile.to/file/e3BBmWsb9qat/aouchhd.part03.rar
    https://www.bigfile.to/file/YzByuT2kAJBj/aouchhd.part04.rar
    https://www.bigfile.to/file/Armcj74AKwN4/aouchhd.part05.rar
    https://www.bigfile.to/file/wb9SWUWUbH3d/aouchhd.part06.rar
    https://www.bigfile.to/file/7stX4VqdfPgE/aouchhd.part07.rar
    https://www.bigfile.to/file/svqWhrHWYmVT/aouchhd.part08.rar
    https://www.bigfile.to/file/UE4qyU9d7Tnt/aouchhd.part09.rar
    https://www.bigfile.to/file/4jRyHQTsufSt/aouchhd.part10.rar
    https://www.bigfile.to/file/PBuuEXrc3DA3/aouchhd.part11.rar

      Fecha y hora actual: Mar Oct 17, 2017 4:55 pm