JAPAN SUFFERING

EL MEJOR FORO DE DESCARGAS DE MUSICA, JUEGOS Y VIDEOS.

JAPAN SUFFERING FORO DE CALIDAD Y CANTIDAD, SOMOS MAS QUE SOLO UN FORO...

    Disneys A Christmas Carol (2009)(FullHD 1080)(Ing-Lat)

    Comparte

    pomposos
    JS Guest
    JS Guest

    Mensajes : 4742
    Reputación : 0
    Fecha de inscripción : 29/10/2013

    Disneys A Christmas Carol (2009)(FullHD 1080)(Ing-Lat)

    Mensaje por pomposos el Lun Mar 06, 2017 8:12 am


    Código:
    http://www.imdb.com/title/tt1067106/

    Titulo original Disney's A Christmas Carol
    Ano 2009
    Duracion 95 min.
    Pais Estados Unidos
    Director Robert Zemeckis
    Guion Robert Zemeckis (Historia: Charles Dickens)
    Musica Alan Silvestri
    Fotografia Robert Presley
    Reparto Animation, Jim Carrey, Gary Oldman, Colin Firth, Robin Wright Penn, Cary Elwes, Bob Hoskins, Daryl Sabara, Fionnula Flanagan, Sammi Hanratty, Ryan Ochoa, Steve Valentine, Leslie Zemeckis, Sage Ryan, Tarah Paige, Amber Gainey Meade
    Productora Walt Disney Pictures / ImageMovers
    Genero Animacion. Fantastico. Drama. Infantil | Cine familiar. Navidad. 3-D
    Sinopsis Ebenezer Scrooge (Jim Carrey) es un personaje malhumorado y grunon que trata con desprecio y malos modales a su fiel empleado Bob Cratchit (Gary Oldman) y a su alegre sobrino (Colin Firth). Pero, cuando el espiritu de las Navidades pasadas, presentes y futuras lo arrastra a un viaje durante el cual descubre verdades que siempre se ha negado a ver, el corazon del viejo avaro se ilumina y se da cuenta de que debe actuar inmediatamente para contrarrestar tantos anos de egoismo y rencor

    Código:

    Format : Matroska
    Format version : Version 4 / Version 2
    File size : 2.60 GiB
    Duration : 1h 35mn
    Overall bit rate : 3 885 Kbps
    Movie name : A Christmas Carol (2009) [FULL 1080p Dual]
    Encoded date : UTC 2013-11-27 17:43:06
    Writing application : mkvmerge v6.0.0 ('Coming Up For Air') built on Jan 20 2013 09:52:00
    Writing library : libebml v1.3.0 + libmatroska v1.4.0
    Video
    ID : 1
    Format : AVC
    Format/Info : Advanced Video Codec
    Format profile : High@L4.1
    Format settings, CABAC : Yes
    Format settings, ReFrames : 2 frames
    Codec ID : V_MPEG4/ISO/AVC
    Duration : 1h 35mn
    Bit rate : 2 912 Kbps
    Width : 1 920 pixels
    Height : 1 080 pixels
    Display aspect ratio : 16:9
    Frame rate mode : Constant
    Frame rate : 23.976 fps
    Color space : YUV
    Chroma subsampling : 4:2:0
    Bit depth : 8 bits
    Scan type : Progressive
    Bits/(Pixel*Frame) : 0.059
    Stream size : 1.95 GiB (75%)
    Writing library : x264 core
    Default : Yes
    Forced : No
    Color primaries : BT.709
    Transfer characteristics : BT.709
    Matrix coefficients : BT.709
    Audio #1
    ID : 2
    Format : AC-3
    Format/Info : Audio Coding 3
    Mode extension : CM (complete main)
    Format settings, Endianness : Big
    Codec ID : A_AC3
    Duration : 1h 35mn
    Bit rate mode : Constant
    Bit rate : 448 Kbps
    Channel count : 6 channels
    Channel positions : Front: L C R, Side: L R, LFE
    Sampling rate : 48.0 KHz
    Bit depth : 16 bits
    Compression mode : Lossy
    Stream size : 307 MiB (12%)
    Title : Audio Latino
    Default : Yes
    Forced : No
    Audio #2
    ID : 3
    Format : AC-3
    Format/Info : Audio Coding 3
    Mode extension : CM (complete main)
    Format settings, Endianness : Big
    Codec ID : A_AC3
    Duration : 1h 35mn
    Bit rate mode : Constant
    Bit rate : 448 Kbps
    Channel count : 6 channels
    Channel positions : Front: L C R, Side: L R, LFE
    Sampling rate : 48.0 KHz
    Bit depth : 16 bits
    Compression mode : Lossy
    Stream size : 307 MiB (12%)
    Title : Audio Ingles
    Default : No
    Forced : No
    Text #1
    ID : 4
    Format : VobSub
    Muxing mode : zlib
    Codec ID : S_VOBSUB
    Codec ID/Info : The same subtitle format used on DVDs
    Title : Subtitulos Latino
    Default : No
    Forced : No
    Text #2
    ID : 5
    Format : VobSub
    Muxing mode : zlib
    Codec ID : S_VOBSUB
    Codec ID/Info : The same subtitle format used on DVDs
    Title : Subtitulos Ingles
    Default : No
    Forced : No
    Text #3
    ID : 6
    Format : UTF-8
    Codec ID : S_TEXT/UTF8
    Codec ID/Info : UTF-8 Plain Text
    Default : Yes
    Forced : No









    Código:

    https://www.bigfile.to/file/McX4KYXWqMZG/achcarhd.part01.rar
    https://www.bigfile.to/file/ZTrbTbNPZshx/achcarhd.part02.rar
    https://www.bigfile.to/file/akFQNbmgfEu9/achcarhd.part03.rar
    https://www.bigfile.to/file/SKtDEXcxvAu9/achcarhd.part04.rar
    https://www.bigfile.to/file/VJFgwQeVvc4W/achcarhd.part05.rar
    https://www.bigfile.to/file/zURrdTRe2TPb/achcarhd.part06.rar
    https://www.bigfile.to/file/5XjrqAwc44hR/achcarhd.part07.rar
    https://www.bigfile.to/file/QKxMnGAQGJc8/achcarhd.part08.rar
    https://www.bigfile.to/file/mX2UA8awQUU6/achcarhd.part09.rar
    https://www.bigfile.to/file/u7KvbxZrkGz4/achcarhd.part10.rar
    https://www.bigfile.to/file/fwUJrn4yXgMf/achcarhd.part11.rar

      Fecha y hora actual: Mar Ago 22, 2017 10:57 am