JAPAN SUFFERING

EL MEJOR FORO DE DESCARGAS DE MUSICA, JUEGOS Y VIDEOS.

JAPAN SUFFERING FORO DE CALIDAD Y CANTIDAD, SOMOS MAS QUE SOLO UN FORO...

    Dracula (1979)(FullHD 1080)(Ing-Lat)

    Comparte

    pomposos
    JS Guest
    JS Guest

    Mensajes : 4728
    Reputación : 0
    Fecha de inscripción : 29/10/2013

    Dracula (1979)(FullHD 1080)(Ing-Lat)

    Mensaje por pomposos el Lun Mar 06, 2017 8:20 am




    Titulo original: Dracula
    Titulo en Latino: Dracula
    Ano: 1979
    Duracion: 109 min.
    Pais: Reino Unido
    Director: John Badham
    Guion: W.D. Richter (Novela: Bram Stocker)
    Musica: John Williams
    Fotografia: Gilbert Taylor
    Reparto: Frank Langella, Kate Nelligan, Laurence Olivier, Donald Pleasence, Trevor Eve, Jan Francis, Tony Haygarth, Janine Duvitski, Teddy Turner, Sylvester McCoy
    Productora: Universal Pictures / The Mirisch Corporation
    Genero: Terror. Fantastico | Vampiros
    El conde Dracula, un personaje tan seductor y atractivo como peligroso y carente de escrupulos, entabla amistad con el Doctor Seward y su entorno. Al poco tiempo, Mina, una conocida del Doctor, muere misteriosamente sin una gota de sangre en su cuerpo...


    [center]
    Código:

    General
    Format                                  : Matroska
    Format version                          : Version 4 / Version 2
    File size                                : 8.39 GiB
    Duration                                : 1 h 49 min
    Overall bit rate                        : 11.0 Mb/s
    Movie name                              : Dracula (1979) 1080p
    Encoded date                            : UTC 2017-01-16 17:42:22
    Writing application                      : mkvmerge v9.5.0 ('Quiet Fire') 64bit
    Writing library                          : libebml v1.3.4 + libmatroska v1.4.5
    Video
    ID                                      : 1
    Format                                  : AVC
    Format/Info                              : Advanced Video Codec
    Format profile                          : High@L4.1
    Format settings, CABAC                  : Yes
    Format settings, ReFrames                : 4 frames
    Codec ID                                : V_MPEG4/ISO/AVC
    Duration                                : 1 h 49 min
    Bit rate                                : 8 000 kb/s
    Width                                    : 1 920 pixels
    Height                                  : 816 pixels
    Display aspect ratio                    : 2.35:1
    Frame rate mode                          : Constant
    Frame rate                              : 23.976 (24000/1001) FPS
    Color space                              : YUV
    Chroma subsampling                      : 4:2:0
    Bit depth                                : 8 bits
    Scan type                                : Progressive
    Bits/(Pixel*Frame)                      : 0.213
    Stream size                              : 6.10 GiB (73%)
    Title                                    : Dracula (1979) 1080p
    Writing library                          : x264 core 142 r2479 dd79a61
    Language                                : English
    Default                                  : Yes
    Forced                                  : No
    Color range                              : Limited
    Color primaries                          : BT.709
    Transfer characteristics                : BT.709
    Matrix coefficients                      : BT.709
    Audio #1
    ID                                      : 2
    Format                                  : AC-3
    Format/Info                              : Audio Coding 3
    Mode extension                          : CM (complete main)
    Format settings, Endianness              : Big
    Codec ID                                : A_AC3
    Duration                                : 1 h 49 min
    Bit rate mode                            : Constant
    Bit rate                                : 256 kb/s
    Channel(s)                              : 2 channels
    Channel positions                        : Front: L R
    Sampling rate                            : 48.0 kHz
    Frame rate                              : 31.250 FPS (1536 spf)
    Bit depth                                : 16 bits
    Compression mode                        : Lossy
    Delay relative to video                  : -83 ms
    Stream size                              : 200 MiB (2%)
    Language                                : Spanish
    Default                                  : Yes
    Forced                                  : No
    Audio #2
    ID                                      : 3
    Format                                  : AC-3
    Format/Info                              : Audio Coding 3
    Mode extension                          : CM (complete main)
    Format settings, Endianness              : Big
    Codec ID                                : A_AC3
    Duration                                : 1 h 49 min
    Bit rate mode                            : Constant
    Bit rate                                : 256 kb/s
    Channel(s)                              : 2 channels
    Channel positions                        : Front: L R
    Sampling rate                            : 48.0 kHz
    Frame rate                              : 31.250 FPS (1536 spf)
    Bit depth                                : 16 bits
    Compression mode                        : Lossy
    Delay relative to video                  : -83 ms
    Stream size                              : 200 MiB (2%)
    Title                                    : Dracula (1979) - Ingles AC3 2.0 - 256 Kbps
    Language                                : English
    Default                                  : No
    Forced                                  : No
    Audio #3
    ID                                      : 4
    Format                                  : DTS
    Format/Info                              : Digital Theater Systems
    Mode                                    : 16
    Format settings, Endianness              : Big
    Codec ID                                : A_DTS
    Duration                                : 1 h 49 min
    Bit rate mode                            : Constant
    Bit rate                                : 447 kb/s
    Channel(s)                              : 2 channels
    Channel positions                        : Front: L R
    Sampling rate                            : 48.0 kHz
    Frame rate                              : 93.750 FPS (512 spf)
    Bit depth                                : 24 bits
    Compression mode                        : Lossy
    Delay relative to video                  : -83 ms
    Stream size                              : 349 MiB (4%)
    Language                                : Spanish
    Default                                  : No
    Forced                                  : No
    Audio #4
    ID                                      : 5
    Format                                  : DTS
    Format/Info                              : Digital Theater Systems
    Format profile                          : MA / Core
    Mode                                    : 16
    Format settings, Endianness              : Big
    Codec ID                                : A_DTS
    Duration                                : 1 h 49 min
    Bit rate mode                            : Variable / Constant
    Bit rate                                : 2 048 kb/s / 1 509 kb/s
    Channel(s)                              : 2 channels
    Channel positions                        :  / Front: L R
    Sampling rate                            : 48.0 kHz
    Frame rate                              : 93.750 FPS (512 spf)
    Bit depth                                : 24 bits
    Compression mode                        : Lossless / Lossy
    Delay relative to video                  : -83 ms
    Stream size                              : 1.56 GiB (19%)
    Language                                : English
    Default                                  : No
    Forced                                  : No
    Text
    ID                                      : 6
    Format                                  : UTF-8
    Codec ID                                : S_TEXT/UTF8
    Codec ID/Info                            : UTF-8 Plain Text
    Duration                                : 1 h 39 min
    Bit rate                                : 41 b/s
    Count of elements                        : 814
    Stream size                              : 30.6 KiB (0%)
    Language                                : Spanish
    Default                                  : No
    Forced                                  : No









    Código:

    https://www.bigfile.to/file/QcqNsnuTu5na/drc79ghd.part01.rar
    https://www.bigfile.to/file/dGgesmcdn6E6/drc79ghd.part02.rar
    https://www.bigfile.to/file/4XjdpWpBNH5T/drc79ghd.part03.rar
    https://www.bigfile.to/file/WW6v5enctt3y/drc79ghd.part04.rar
    https://www.bigfile.to/file/nxBgCSXYNtC5/drc79ghd.part05.rar
    https://www.bigfile.to/file/rAaAmDDmnBh5/drc79ghd.part06.rar
    https://www.bigfile.to/file/rTXuT4dmnQ2Q/drc79ghd.part07.rar
    https://www.bigfile.to/file/yueXkq9TEYbT/drc79ghd.part08.rar
    https://www.bigfile.to/file/Yy7QPetDxtBE/drc79ghd.part09.rar
    https://www.bigfile.to/file/Fst4MNUFP9z5/drc79ghd.part10.rar
    https://www.bigfile.to/file/XgNDMBjzX6EV/drc79ghd.part11.rar
    https://www.bigfile.to/file/Rn3dAKkptkmW/drc79ghd.part12.rar
    https://www.bigfile.to/file/jt4WAgEWF9A4/drc79ghd.part13.rar
    https://www.bigfile.to/file/hnUqM5wkzUuy/drc79ghd.part14.rar
    https://www.bigfile.to/file/aYZR82S3Xks6/drc79ghd.part15.rar
    https://www.bigfile.to/file/fx8mdE2AQyaH/drc79ghd.part16.rar
    https://www.bigfile.to/file/pAPTcvcSSVb3/drc79ghd.part17.rar
    https://www.bigfile.to/file/WjYt9RcNmB93/drc79ghd.part18.rar
    https://www.bigfile.to/file/vF44fqTcm7gq/drc79ghd.part19.rar
    https://www.bigfile.to/file/ZvfD6twwNBSQ/drc79ghd.part20.rar
    https://www.bigfile.to/file/CWdY5AXT9Ren/drc79ghd.part21.rar
    https://www.bigfile.to/file/s3t9KWHyV6Z2/drc79ghd.part22.rar
    https://www.bigfile.to/file/9PMr6TDaGeMM/drc79ghd.part23.rar
    https://www.bigfile.to/file/EXGh6HufQWVm/drc79ghd.part24.rar
    https://www.bigfile.to/file/kqqyuVafUMzq/drc79ghd.part25.rar
    https://www.bigfile.to/file/3XqJJHknA49S/drc79ghd.part26.rar
    https://www.bigfile.to/file/f69vjbg7YAaK/drc79ghd.part27.rar
    https://www.bigfile.to/file/4WGM4rsVvvV8/drc79ghd.part28.rar
    https://www.bigfile.to/file/XkrRT8KcM55b/drc79ghd.part29.rar
    https://www.bigfile.to/file/4GBcSQ3uYsC8/drc79ghd.part30.rar
    https://www.bigfile.to/file/DJauMSysHPzH/drc79ghd.part31.rar
    https://www.bigfile.to/file/G5VhB4hEBCTh/drc79ghd.part32.rar
    https://www.bigfile.to/file/CPMWX3S5GnBe/drc79ghd.part33.rar
    https://www.bigfile.to/file/Jbk9WcKFrN8j/drc79ghd.part34.rar

      Fecha y hora actual: Lun Ago 21, 2017 11:41 pm