JAPAN SUFFERING

EL MEJOR FORO DE DESCARGAS DE MUSICA, JUEGOS Y VIDEOS.

JAPAN SUFFERING FORO DE CALIDAD Y CANTIDAD, SOMOS MAS QUE SOLO UN FORO...

    Dracula Untold (2014)(FULL 1080p)(Ing-Lat)

    Comparte

    pomposos
    JS Guest
    JS Guest

    Mensajes : 4742
    Reputación : 0
    Fecha de inscripción : 29/10/2013

    Dracula Untold (2014)(FULL 1080p)(Ing-Lat)

    Mensaje por pomposos el Lun Mar 06, 2017 8:28 am




    Titulo original Dracula Untold
    Ano 2014
    Duracion 92 min.
    Pais Estados Unidos
    Director Gary Shore
    Guion Matt Sazama, Burk Sharpless
    Musica Ramin Djawadi
    Fotografia John Schwartzman
    Reparto Luke Evans, Sarah Gadon, Dominic Cooper, Art Parkinson, Charles Dance, Diarmaid Murtagh, Paul Kaye, Samantha Barks, Thor Kristjansson, William Houston, Noah Huntley, Ronan Vibert, Zach McGowan, Ferdinand Kingsley
    Productora Universal Pictures / Legendary Entertainment
    Genero Terror. Drama | Vampiros. Dracula. Biografico
    Sinopsis Una historia original sobre Vlad Tepes o Vlad el Empalador, el principe rumano en el que se inspiro Bram Stoker para escribir su celebre novela (1897) y crear al vampiro mas famoso de todos los tiempos. La pelicula narra la tragica vida de Vlad, que dilemas tuvo que afrontar y como se convirtio en un vampiro.

    Código:

    General
    Complete name : Dracula Untold (2014) 1080p FULL Dual.mkv
    Format : Matroska
    Format version : Version 2
    File size : 5.24 GiB
    Duration : 1h 32mn
    Overall bit rate : 8 137 Kbps
    Writing application : HandBrake 6509svn 2014110901
    Writing library : Lavf55.12.0
    Video
    ID : 1
    Format : AVC
    Format/Info : Advanced Video Codec
    Format profile : High@L4.0
    Format settings, CABAC : Yes
    Format settings, ReFrames : 4 frames
    Codec ID : V_MPEG4/ISO/AVC
    Duration : 1h 32mn
    Bit rate : 7 000 Kbps
    Width : 1 920 pixels
    Height : 1 080 pixels
    Display aspect ratio : 16:9
    Frame rate mode : Constant
    Frame rate : 23.976 fps
    Color space : YUV
    Chroma subsampling : 4:2:0
    Bit depth : 8 bits
    Scan type : Progressive
    Bits/(Pixel*Frame) : 0.141
    Stream size : 4.31 GiB (82%)
    Writing library : x264 core 142 r2479 dd79a61
    Default : Yes
    Forced : No
    Color primaries : BT.709
    Transfer characteristics : BT.709
    Matrix coefficients : BT.709
    Audio #1
    ID : 2
    Format : AC-3
    Format/Info : Audio Coding 3
    Mode extension : CM (complete main)
    Format settings, Endianness : Big
    Codec ID : A_AC3
    Duration : 1h 32mn
    Bit rate mode : Constant
    Bit rate : 640 Kbps
    Channel(s) : 6 channels
    Channel positions : Front: L C R, Side: L R, LFE
    Sampling rate : 48.0 KHz
    Bit depth : 16 bits
    Compression mode : Lossy
    Delay relative to video : 1mn 5s
    Stream size : 422 MiB (8%)
    Title : Surround
    Language : Spanish
    Default : Yes
    Forced : No
    Audio #2
    ID : 3
    Format : AC-3
    Format/Info : Audio Coding 3
    Mode extension : CM (complete main)
    Format settings, Endianness : Big
    Codec ID : A_AC3
    Duration : 1h 32mn
    Bit rate mode : Constant
    Bit rate : 640 Kbps
    Channel(s) : 6 channels
    Channel positions : Front: L C R, Side: L R, LFE
    Sampling rate : 48.0 KHz
    Bit depth : 16 bits
    Compression mode : Lossy
    Delay relative to video : 1mn 5s
    Stream size : 422 MiB (8%)
    Title : Surround
    Language : English
    Default : No
    Forced : No
    Text #1
    ID : 4
    Format : PGS
    Codec ID : S_HDMV/PGS
    Codec ID/Info : The same subtitle format used on BDs/HD-DVDs
    Language : Spanish
    Default : No
    Forced : No
    Text #2
    ID : 5
    Format : PGS
    Codec ID : S_HDMV/PGS
    Codec ID/Info : The same subtitle format used on BDs/HD-DVDs
    Language : English
    Default : No
    Forced : No









    Código:

    https://www.bigfile.to/file/Dgsydmk2qDCq/drcuhd.part01.rar
    https://www.bigfile.to/file/CApaZTuDDfPZ/drcuhd.part02.rar
    https://www.bigfile.to/file/rbhHjRYXV4MS/drcuhd.part03.rar
    https://www.bigfile.to/file/pN8VWA4ENHev/drcuhd.part04.rar
    https://www.bigfile.to/file/jY2x89ctQ394/drcuhd.part05.rar
    https://www.bigfile.to/file/jtZsqvsC5yDY/drcuhd.part06.rar
    https://www.bigfile.to/file/EfGQTehRRYdE/drcuhd.part07.rar
    https://www.bigfile.to/file/MmWpwRsjQCka/drcuhd.part08.rar
    https://www.bigfile.to/file/c829ps3vZE3f/drcuhd.part09.rar
    https://www.bigfile.to/file/47VQcQ9BGS2e/drcuhd.part10.rar
    https://www.bigfile.to/file/HaPFJQ65QRZh/drcuhd.part11.rar
    https://www.bigfile.to/file/3YMDdv36mGeB/drcuhd.part12.rar
    https://www.bigfile.to/file/TXAwx9P7ZzEZ/drcuhd.part13.rar
    https://www.bigfile.to/file/vqhvXSCyTWrk/drcuhd.part14.rar
    https://www.bigfile.to/file/mUzbUfu5ESFW/drcuhd.part15.rar
    https://www.bigfile.to/file/aaRySEDGgSVn/drcuhd.part16.rar
    https://www.bigfile.to/file/9EuzaHUsqHYh/drcuhd.part17.rar
    https://www.bigfile.to/file/9uzGeCw9jG5N/drcuhd.part18.rar
    https://www.bigfile.to/file/hEh4yACcDbbw/drcuhd.part19.rar
    https://www.bigfile.to/file/GxksvhcxWEcr/drcuhd.part20.rar
    https://www.bigfile.to/file/6uJhgzRSVTzy/drcuhd.part21.rar
    https://www.bigfile.to/file/3VSFpUbCFyZF/drcuhd.part22.rar

      Fecha y hora actual: Mar Ago 22, 2017 11:08 am