JAPAN SUFFERING

EL MEJOR FORO DE DESCARGAS DE MUSICA, JUEGOS Y VIDEOS.

JAPAN SUFFERING FORO DE CALIDAD Y CANTIDAD, SOMOS MAS QUE SOLO UN FORO...

    Enemy of the State (1998)(FULL 1080p)(Ing-Lat)

    Comparte

    pomposos
    JS Guest
    JS Guest

    Mensajes : 5972
    Reputación : 0
    Fecha de inscripción : 29/10/2013

    Enemy of the State (1998)(FULL 1080p)(Ing-Lat)

    Mensaje por pomposos el Lun Mar 06, 2017 8:44 am




    Titulo original Enemy of the State
    Ano 1998
    Duracion 132 min.
    Pais Estados Unidos
    Director Tony Scott
    Guion David Marconi
    Musica Trevor Rabin & Harry Gregson-Williams
    Fotografia Dan Mindel
    Reparto Will Smith, Gene Hackman, Jon Voight, Lisa Bonet, Jason Lee, Ian Hart, Tom Sizemore, Regina King, Loren Dean, Jake Busey, Barry Pepper, Gabriel Byrne, Stuart Wilson, Jason Robards, Philip Baker Hall, Laura Cayouette, Seth Green, Scott Caan, Jack Black, Jamie Kennedy, Grant Heslov, Ivana Milicevic
    Productora Touchstone Pictures / Don Simpson/Jerry Bruckheimer Production / Scott Free Production
    Genero Thriller. Accion. Intriga
    Sinopsis La feliz vida familiar y la brillante carrera del abogado Robert Clayton Dean estan a punto de desmoronarse, cuando llega a sus manos una cinta de video que contiene imagenes del asesinato de un miembro del Congreso de los Estados Unidos, en el que aparecen involucrados agentes del Gobierno.

    Código:

    General
    Format : Matroska
    Format version : Version 4 / Version 2
    File size : 6.69 GiB
    Duration : 2h 12mn
    Overall bit rate : 7 243 Kbps
    Movie name : Enemy of the State [1998][1080p FULL Dual]
    Encoded date : UTC 2014-11-09 07:51:19
    Writing application : mkvmerge v6.9.1 (Blue Panther) 64bit built on Apr 18 2014 18:23:38
    Writing library : libebml v1.3.0 + libmatroska v1.4.1
    Video
    ID : 1
    Format : AVC
    Format/Info : Advanced Video Codec
    Format profile : High@L4.1
    Format settings, CABAC : Yes
    Format settings, ReFrames : 2 frames
    Codec ID : V_MPEG4/ISO/AVC
    Duration : 2h 12mn
    Bit rate : 6 015 Kbps
    Width : 1 920 pixels
    Height : 1 080 pixels
    Display aspect ratio : 16:9
    Frame rate mode : Constant
    Frame rate : 23.976 fps
    Color space : YUV
    Chroma subsampling : 4:2:0
    Bit depth : 8 bits
    Scan type : Progressive
    Bits/(Pixel*Frame) : 0.121
    Stream size : 5.37 GiB (80%)
    Writing library : x264 core 142
    Default : Yes
    Forced : No
    Color primaries : BT.709
    Transfer characteristics : BT.709
    Matrix coefficients : BT.709
    Audio #1
    ID : 2
    Format : AC-3
    Format/Info : Audio Coding 3
    Mode extension : CM (complete main)
    Format settings, Endianness : Big
    Codec ID : A_AC3
    Duration : 2h 12mn
    Bit rate mode : Constant
    Bit rate : 640 Kbps
    Channel(s) : 6 channels
    Channel positions : Front: L C R, Side: L R, LFE
    Sampling rate : 48.0 KHz
    Bit depth : 16 bits
    Compression mode : Lossy
    Stream size : 605 MiB (9%)
    Title : spanish
    Default : Yes
    Forced : No
    Audio #2
    ID : 3
    Format : AC-3
    Format/Info : Audio Coding 3
    Mode extension : CM (complete main)
    Format settings, Endianness : Big
    Codec ID : A_AC3
    Duration : 2h 12mn
    Bit rate mode : Constant
    Bit rate : 640 Kbps
    Channel(s) : 6 channels
    Channel positions : Front: L C R, Side: L R, LFE
    Sampling rate : 48.0 KHz
    Bit depth : 16 bits
    Compression mode : Lossy
    Stream size : 605 MiB (9%)
    Title : english
    Default : No
    Forced : No
    Text #1
    ID : 4
    Format : UTF-8
    Codec ID : S_TEXT/UTF8
    Codec ID/Info : UTF-8 Plain Text
    Default : Yes
    Forced : No
    Text #2
    ID : 5
    Format : VobSub
    Muxing mode : zlib
    Codec ID : S_VOBSUB
    Codec ID/Info : The same subtitle format used on DVDs
    Title : spanish
    Default : No
    Forced : No
    Text #3
    ID : 6
    Format : VobSub
    Muxing mode : zlib
    Codec ID : S_VOBSUB
    Codec ID/Info : The same subtitle format used on DVDs
    Title : english
    Default : No
    Forced : No









    Código:

    https://www.bigfile.to/file/NJJcms2zg3HV/ennouibhd.part01.rar
    https://www.bigfile.to/file/2KANuWxFQQeF/ennouibhd.part02.rar
    https://www.bigfile.to/file/KJcrZYZMywGn/ennouibhd.part03.rar
    https://www.bigfile.to/file/cKrkZnzeK524/ennouibhd.part04.rar
    https://www.bigfile.to/file/Hb6dj9aWmuhG/ennouibhd.part05.rar
    https://www.bigfile.to/file/f8hzZV8sCXf9/ennouibhd.part06.rar
    https://www.bigfile.to/file/PQY6zCttmgwF/ennouibhd.part07.rar
    https://www.bigfile.to/file/jYmT9bkvmcrU/ennouibhd.part08.rar
    https://www.bigfile.to/file/DssxdNwtytQa/ennouibhd.part09.rar
    https://www.bigfile.to/file/J8kUpReCWSUQ/ennouibhd.part10.rar
    https://www.bigfile.to/file/6s6fbgCztfFP/ennouibhd.part11.rar
    https://www.bigfile.to/file/kX9Fw3FTAVnB/ennouibhd.part12.rar
    https://www.bigfile.to/file/DwKTgQG3YM7P/ennouibhd.part13.rar
    https://www.bigfile.to/file/xpmQ7mxNg9nB/ennouibhd.part14.rar
    https://www.bigfile.to/file/UY74mcH9ARwq/ennouibhd.part15.rar
    https://www.bigfile.to/file/DVA2GFSdwWjq/ennouibhd.part16.rar
    https://www.bigfile.to/file/xYRkEqss8uGt/ennouibhd.part17.rar
    https://www.bigfile.to/file/Xe8n7BW7kKwE/ennouibhd.part18.rar
    https://www.bigfile.to/file/wkkMXbMpEPmr/ennouibhd.part19.rar
    https://www.bigfile.to/file/SwAJcQarwUZ3/ennouibhd.part20.rar
    https://www.bigfile.to/file/qySsdy628xwB/ennouibhd.part21.rar
    https://www.bigfile.to/file/gecqGhvrjJeX/ennouibhd.part22.rar
    https://www.bigfile.to/file/G9A76YPvfvgp/ennouibhd.part23.rar
    https://www.bigfile.to/file/97ZmPvAzSg5k/ennouibhd.part24.rar
    https://www.bigfile.to/file/zQXCVWvNKHVf/ennouibhd.part25.rar
    https://www.bigfile.to/file/HTFbGc9XzNKU/ennouibhd.part26.rar
    https://www.bigfile.to/file/TEdRpSWWASVG/ennouibhd.part27.rar
    https://www.bigfile.to/file/FH6kFQGj2mHX/ennouibhd.part28.rar

      Fecha y hora actual: Miér Dic 13, 2017 9:18 am