JAPAN SUFFERING

EL MEJOR FORO DE DESCARGAS DE MUSICA, JUEGOS Y VIDEOS.

JAPAN SUFFERING FORO DE CALIDAD Y CANTIDAD, SOMOS MAS QUE SOLO UN FORO...

    Gantz Perfect Answer (2011)(FullHD 1080)(Jap)

    Comparte

    pomposos
    JS Guest
    JS Guest

    Mensajes : 4742
    Reputación : 0
    Fecha de inscripción : 29/10/2013

    Gantz Perfect Answer (2011)(FullHD 1080)(Jap)

    Mensaje por pomposos el Lun Mar 06, 2017 9:00 am




    TITULO ORIGINAL: Gantz: Perfect Answer (Gantz: Part 2)
    ANO: 2011
    DURACION: 141 min.
    Pais: Japon
    DIRECTOR: Shinsuke Sato
    GUION: Yusuke Watanabe (Comic: Hiroya Oku)
    MUSICA: Kenji Kawai
    FOTOGRAFIA: Taro Kawazu
    REPARTO: Kazunari Ninomiya, Ken'ichi Matsuyama, Yuriko Yoshitaka, Kanata Hongo, Natsuna Watanabe, Takayuki Yamada
    PRODUCTORA: Nikkatsu / Nippon Television Network Corporation (NTV) / Shueisha / Toho Company
    GENERO: Fantastico. Accion. Ciencia ficcion | Monstruos. Extraterrestres. Manga. Secuela
    Sinopsis: Los mas de treinta tomos del manga de Hiroya Oku no podian comprimirse en una unica pelicula. Y mucho menos si se tiene en cuenta que estos dos volumenes se han convertido en uno de los platos fuertes de la ciencia ficcion nipona. Quiza' por eso, el director Shinsuke Sato ha decidido dividir la historia en dos peliculas y dejar a los espectadores o fanaticos del comic en ascuas hasta que no vean la adrenalitica segunda parte. En Gantz: Perfect Answer, recuperamos a Kei, bajo los designios de la bola Gantz, en plena lucha contra alienigenas y demonios.

    [center]
    Código:

    General
    Format : Matroska
    Format version : Version 4 / Version 2
    File size : 12.1 GiB
    Duration : 2 h 21 min
    Overall bit rate : 12.2 Mb/s
    Encoded date : UTC 2017-01-12 15:44:50
    Writing application : mkvmerge v9.5.0 ('Quiet Fire') 64bit
    Writing library : libebml v1.3.4 + libmatroska v1.4.5

    Video
    ID : 1
    Format : AVC
    Format/Info : Advanced Video Codec
    Format profile : High@L4.1
    Format settings, CABAC : Yes
    Format settings, ReFrames : 4 frames
    Codec ID : V_MPEG4/ISO/AVC
    Duration : 2 h 21 min
    Bit rate : 11.6 Mb/s
    Width : 1 920 pixels
    Height : 1 036 pixels
    Display aspect ratio : 1.85:1
    Frame rate mode : Constant
    Frame rate : 23.976 FPS
    Color space : YUV
    Chroma subsampling : 4:2:0
    Bit depth : 8 bits
    Scan type : Progressive
    Bits/(Pixel*Frame) : 0.243
    Stream size : 11.5 GiB (95%)
    Writing library : x264 core 120 r2120 0c7dab9
    Language : English
    Default : Yes
    Forced : No

    Audio
    ID : 2
    Format : AC-3
    Format/Info : Audio Coding 3
    Mode extension : CM (complete main)
    Format settings, Endianness : Big
    Codec ID : A_AC3
    Duration : 2 h 21 min
    Bit rate mode : Constant
    Bit rate : 640 kb/s
    Channel(s) : 6 channels
    Channel positions : Front: L C R, Side: L R, LFE
    Sampling rate : 48.0 kHz
    Frame rate : 31.250 FPS (1536 spf)
    Bit depth : 16 bits
    Compression mode : Lossy
    Stream size : 649 MiB (5%)
    Language : Japanese
    Default : Yes
    Forced : No

    Text
    ID : 3
    Format : UTF-8
    Codec ID : S_TEXT/UTF8
    Codec ID/Info : UTF-8 Plain Text
    Duration : 2 h 15 min
    Bit rate : 24 b/s
    Count of elements : 856
    Stream size : 24.6 KiB (0%)
    Language : Spanish
    Default : Yes
    Forced : No









    Código:

    https://www.bigfile.to/file/D2Xv4PmmpJUS/gatanhd.part01.rar
    https://www.bigfile.to/file/2DFnwFVKW2wr/gatanhd.part02.rar
    https://www.bigfile.to/file/V97gxySG8UJG/gatanhd.part03.rar
    https://www.bigfile.to/file/PqfQ2ujSVTDz/gatanhd.part04.rar
    https://www.bigfile.to/file/nFpXHE9KK5vW/gatanhd.part05.rar
    https://www.bigfile.to/file/MZMGc3vdwcA5/gatanhd.part06.rar
    https://www.bigfile.to/file/Ec3zKCdWutgs/gatanhd.part07.rar
    https://www.bigfile.to/file/XVfw6WHAuYRr/gatanhd.part08.rar
    https://www.bigfile.to/file/YcPbYryRYs6B/gatanhd.part09.rar
    https://www.bigfile.to/file/wesk9bwXB9u8/gatanhd.part10.rar
    https://www.bigfile.to/file/EjbXDqg65pB8/gatanhd.part11.rar
    https://www.bigfile.to/file/AHESGPmAa9F9/gatanhd.part12.rar
    https://www.bigfile.to/file/ADE5AwUBNgh3/gatanhd.part13.rar
    https://www.bigfile.to/file/x7ScWtcUqH9F/gatanhd.part14.rar
    https://www.bigfile.to/file/zpJEkwzaqJaA/gatanhd.part15.rar
    https://www.bigfile.to/file/zPuDvFsgju4u/gatanhd.part16.rar
    https://www.bigfile.to/file/EGkayVv7kNQB/gatanhd.part17.rar
    https://www.bigfile.to/file/fGpFrmVJc3ru/gatanhd.part18.rar
    https://www.bigfile.to/file/25ScM3UxBZwH/gatanhd.part19.rar
    https://www.bigfile.to/file/3PDJphfk2Bq9/gatanhd.part20.rar
    https://www.bigfile.to/file/5qmsDbG9tM6k/gatanhd.part21.rar
    https://www.bigfile.to/file/kPcA2sujHmjZ/gatanhd.part22.rar
    https://www.bigfile.to/file/kvDsc5U3YeYf/gatanhd.part23.rar
    https://www.bigfile.to/file/kS4pqvkfpaXz/gatanhd.part24.rar
    https://www.bigfile.to/file/cEmNG9PUBF3f/gatanhd.part25.rar
    https://www.bigfile.to/file/wyvuvNyefGnG/gatanhd.part26.rar
    https://www.bigfile.to/file/RCdZyEKqJs76/gatanhd.part27.rar
    https://www.bigfile.to/file/kkgt9tXhkKzT/gatanhd.part28.rar
    https://www.bigfile.to/file/5qMrXZwS8wW8/gatanhd.part29.rar
    https://www.bigfile.to/file/UH7KwD38qdEb/gatanhd.part30.rar
    https://www.bigfile.to/file/dWJ2ueKFTjKZ/gatanhd.part31.rar
    https://www.bigfile.to/file/nZZ9v3yk3f6s/gatanhd.part32.rar
    https://www.bigfile.to/file/EgjtDG6MVxdf/gatanhd.part33.rar
    https://www.bigfile.to/file/gfA3mcnxRca3/gatanhd.part34.rar
    https://www.bigfile.to/file/GFV9mXhAyVP7/gatanhd.part35.rar
    https://www.bigfile.to/file/aPjypkHSYxjx/gatanhd.part36.rar
    https://www.bigfile.to/file/tY3TdcDH8kPn/gatanhd.part37.rar
    https://www.bigfile.to/file/m3HjYFyfrX8G/gatanhd.part38.rar
    https://www.bigfile.to/file/nkubEW3dYMGj/gatanhd.part39.rar
    https://www.bigfile.to/file/kRyCChRF6GCg/gatanhd.part40.rar
    https://www.bigfile.to/file/nUSG5QZyMVwN/gatanhd.part41.rar
    https://www.bigfile.to/file/AAYvcxKDX4Tm/gatanhd.part42.rar
    https://www.bigfile.to/file/4g8FU3UHbHnP/gatanhd.part43.rar
    https://www.bigfile.to/file/s8hTAy4xTnFm/gatanhd.part44.rar
    https://www.bigfile.to/file/rn233Sm98fVz/gatanhd.part45.rar
    https://www.bigfile.to/file/UffGSvzV4HaA/gatanhd.part46.rar
    https://www.bigfile.to/file/kDrmmaSXAWtN/gatanhd.part47.rar
    https://www.bigfile.to/file/DbcZfb9NG4PV/gatanhd.part48.rar
    https://www.bigfile.to/file/XkhY3gTsbDBs/gatanhd.part49.rar
    https://www.bigfile.to/file/7anZprnjjyxk/gatanhd.part50.rar

      Fecha y hora actual: Mar Ago 22, 2017 11:05 am