JAPAN SUFFERING

EL MEJOR FORO DE DESCARGAS DE MUSICA, JUEGOS Y VIDEOS.

JAPAN SUFFERING FORO DE CALIDAD Y CANTIDAD, SOMOS MAS QUE SOLO UN FORO...

    Greystoke The Legend of Tarzan (1984)(FullHD 1080)(Ing-Lat)

    Comparte

    pomposos
    JS Guest
    JS Guest

    Mensajes : 5619
    Reputación : 0
    Fecha de inscripción : 29/10/2013

    Greystoke The Legend of Tarzan (1984)(FullHD 1080)(Ing-Lat)

    Mensaje por pomposos el Lun Mar 06, 2017 9:17 am




    Titulo original: Greystoke: The Legend of Tarzan, Lord of the Apes
    Titulo en Latino: Greystoke: La leyenda de Tarzan, Rey de los monos
    Ano: 1984
    Duracion: 129 min.
    Pais: Estados Unidos
    Director: Hugh Hudson
    Guion: Robert Towne (Novela: Edgar Rice Borroughs)
    Musica: John Scott
    Fotografia: John Alcott
    Reparto: Christopher Lambert, Andie MacDowell, Ralph Richardson, James Fox, Ian Holm, Eric Langlois, Ian Charleson, Cheryl Campbell, Nigel Davenport, Nicholas Farrell, Paul Geoffrey, Richard Griffiths
    Productora: Warner Bros. Pictures
    Genero: Aventuras. Drama. Romance | Africa. Siglo XIX. Anos 1900 (circa)
    Premios
    1984: 3 nominaciones al Oscar: Actor sec. (Ralph Richardson), maquillaje, guion adaptado
    1984: Circulo de criticos de Nueva York: Mejor actor de reparto (Ralph Richardson)
    1984: Premios Cesar: Nominada a Mejor pelicula extranjera
    1984: Premios BAFTA: Mejor maquillaje y peluqueria. 6 nominaciones
    Sinopsis: Ano 1886. Tras un naufragio frente a las costas de Africa, el heredero de la familia Greystoke, John Clayton, huerfano a los pocos meses de nacer, es adoptado por una tribu de simios, entre los que vive durante anos. Descubierto por el Capitan D�Arnot, el joven Tarzan es llevado a Inglaterra, presentado a su familia y educado de acuerdo con su rango.

    [center]
    Código:

    General
    General
    Complete name                            : Greystoke - The Legend of Tarzan, Lord of the Apes (1984) 1080p BDRip Dual Latino-Ingles [Subt. Esp].mkv
    Format                                  : Matroska
    Format version                          : Version 4 / Version 2
    File size                                : 12.8 GiB
    Duration                                : 2 h 17 min
    Overall bit rate                        : 13.4 Mb/s
    Movie name                              : www.club-hd.com -> Greystoke: The Legend of Tarzan, Lord of the Apes (1984) 1080p BDRip Dual Latino-Ingles [Subt. Esp]
    Encoded date                            : UTC 2017-01-06 23:12:26
    Writing application                      : mkvmerge v9.5.0 (Quiet Fire) 64bit
    Writing library                          : libebml v1.3.4 + libmatroska v1.4.5

    Video
    ID                                      : 1
    Format                                  : AVC
    Format/Info                              : Advanced Video Codec
    Format profile                          : High@L4.1
    Format settings, CABAC                  : Yes
    Format settings, ReFrames                : 5 frames
    Codec ID                                : V_MPEG4/ISO/AVC
    Duration                                : 2 h 17 min
    Bit rate                                : 11.1 Mb/s
    Width                                    : 1 920 pixels
    Height                                  : 800 pixels
    Display aspect ratio                    : 2.40:1
    Frame rate mode                          : Constant
    Frame rate                              : 23.976 (24000/1001) FPS
    Color space                              : YUV
    Chroma subsampling                      : 4:2:0
    Bit depth                                : 8 bits
    Scan type                                : Progressive
    Bits/(Pixel*Frame)                      : 0.300
    Stream size                              : 10.6 GiB (83%)
    Title                                    : Greystoke: The Legend of Tarzan, Lord of the Apes (1984) 1080p BDRip Dual Latino-Ingles [Subt. Esp]
    Writing library                          : x264 core 135 r2345kMod f0c1c53
    Language                                : English
    Default                                  : Yes
    Forced                                  : No

    Audio #1
    ID                                      : 2
    Format                                  : AC-3
    Format/Info                              : Audio Coding 3
    Format profile                          : Dolby Digital
    Mode extension                          : CM (complete main)
    Format settings, Endianness              : Big
    Codec ID                                : A_AC3
    Duration                                : 2 h 16 min
    Bit rate mode                            : Constant
    Bit rate                                : 192 kb/s
    Channel(s)                              : 2 channels
    Channel positions                        : Front: L R
    Sampling rate                            : 48.0 kHz
    Frame rate                              : 31.250 FPS (1536 spf)
    Bit depth                                : 16 bits
    Compression mode                        : Lossy
    Stream size                              : 188 MiB (1%)
    Title                                    : Greystoke: The Legend of Tarzan (1984) - Espanol Latino AC3 2.0 - 192 Kbps
    Language                                : Spanish
    Default                                  : Yes
    Forced                                  : No

    Audio #2
    ID                                      : 3
    Format                                  : AC-3
    Format/Info                              : Audio Coding 3
    Mode extension                          : CM (complete main)
    Format settings, Endianness              : Big
    Codec ID                                : A_AC3
    Duration                                : 2 h 17 min
    Bit rate mode                            : Constant
    Bit rate                                : 640 kb/s
    Channel(s)                              : 6 channels
    Channel positions                        : Front: L C R, Side: L R, LFE
    Sampling rate                            : 48.0 kHz
    Frame rate                              : 31.250 FPS (1536 spf)
    Bit depth                                : 16 bits
    Compression mode                        : Lossy
    Stream size                              : 627 MiB (5%)
    Title                                    : Greystoke: The Legend of Tarzan (1984) - Ingles AC3 5.1 - 640 Kbps
    Language                                : English
    Default                                  : No
    Forced                                  : No

    Audio #3
    ID                                      : 4
    Format                                  : DTS
    Format/Info                              : Digital Theater Systems
    Mode                                    : 16
    Format settings, Endianness              : Big
    Codec ID                                : A_DTS
    Duration                                : 2 h 17 min
    Bit rate mode                            : Constant
    Bit rate                                : 1 509 kb/s
    Channel(s)                              : 6 channels
    Channel positions                        : Front: L C R, Side: L R, LFE
    Sampling rate                            : 48.0 kHz
    Frame rate                              : 93.750 FPS (512 spf)
    Bit depth                                : 24 bits
    Compression mode                        : Lossy
    Stream size                              : 1.44 GiB (11%)
    Title                                    : Greystoke: The Legend of Tarzan (1984) - Ingles DTS 5.1 - 1509 Kbps
    Language                                : English
    Default                                  : No
    Forced                                  : No

    Text
    ID                                      : 5
    Format                                  : UTF-8
    Codec ID                                : S_TEXT/UTF8
    Codec ID/Info                            : UTF-8 Plain Text
    Duration                                : 2 h 6 min
    Bit rate                                : 22 b/s
    Count of elements                        : 753
    Stream size                              : 20.7 KiB (0%)
    Title                                    : Greystoke: The Legend of Tarzan (1984) - Subtitulos Espanol
    Language                                : Spanish
    Default                                  : No
    Forced                                  : No









    Código:

    https://www.bigfile.to/file/VqMFH8RhnyBn/gettahd.part01.rar
    https://www.bigfile.to/file/qSyxkbwKe2G4/gettahd.part02.rar
    https://www.bigfile.to/file/PscDAtVaKsFY/gettahd.part03.rar
    https://www.bigfile.to/file/sNag8BumeZAG/gettahd.part04.rar
    https://www.bigfile.to/file/7Ywm39En8HTz/gettahd.part05.rar
    https://www.bigfile.to/file/WTgG9Q7vpqry/gettahd.part06.rar
    https://www.bigfile.to/file/g8aF3QZkcj6W/gettahd.part07.rar
    https://www.bigfile.to/file/Pe9suuwxf8ea/gettahd.part08.rar
    https://www.bigfile.to/file/pQBJPwf5ZD4E/gettahd.part09.rar
    https://www.bigfile.to/file/mcsCxZUMyZ6v/gettahd.part10.rar
    https://www.bigfile.to/file/WczgaXhZ4y6M/gettahd.part11.rar
    https://www.bigfile.to/file/2A2N7Fz9BKsu/gettahd.part12.rar
    https://www.bigfile.to/file/nKaWsR8JqFsr/gettahd.part13.rar
    https://www.bigfile.to/file/UuZ8CfR5H8Gf/gettahd.part14.rar
    https://www.bigfile.to/file/RC3nkZngjpfN/gettahd.part15.rar
    https://www.bigfile.to/file/3bQ4PwSN3VHm/gettahd.part16.rar
    https://www.bigfile.to/file/MBr3FJjmKsjd/gettahd.part17.rar
    https://www.bigfile.to/file/FujSA27PUGXz/gettahd.part18.rar
    https://www.bigfile.to/file/YSMjFmNnvskR/gettahd.part19.rar
    https://www.bigfile.to/file/b7PzWzED5Gge/gettahd.part20.rar
    https://www.bigfile.to/file/bW4N3YWxd5rw/gettahd.part21.rar
    https://www.bigfile.to/file/kCpNww2PNvwZ/gettahd.part22.rar
    https://www.bigfile.to/file/kRdNJMj8dZqg/gettahd.part23.rar
    https://www.bigfile.to/file/tEePZYQG3UmK/gettahd.part24.rar
    https://www.bigfile.to/file/5Mg2pugUABwd/gettahd.part25.rar
    https://www.bigfile.to/file/rJ9eYJHZZ7a3/gettahd.part26.rar
    https://www.bigfile.to/file/SsQRUxjgyzeB/gettahd.part27.rar
    https://www.bigfile.to/file/hKSQRxnBw9Xt/gettahd.part28.rar
    https://www.bigfile.to/file/G4USqxVwP92x/gettahd.part29.rar
    https://www.bigfile.to/file/GHtEEyc6NtV3/gettahd.part30.rar
    https://www.bigfile.to/file/jCvtmyD23vq5/gettahd.part31.rar
    https://www.bigfile.to/file/rSePEG3F7JGB/gettahd.part32.rar
    https://www.bigfile.to/file/M2QbRzk2etwQ/gettahd.part33.rar
    https://www.bigfile.to/file/ySp22FVpdXNS/gettahd.part34.rar
    https://www.bigfile.to/file/ZQy7JCQ993bH/gettahd.part35.rar
    https://www.bigfile.to/file/7mpF3UxEx5pr/gettahd.part36.rar
    https://www.bigfile.to/file/ecRHsBunMc7u/gettahd.part37.rar
    https://www.bigfile.to/file/hqPxCnhG3YGt/gettahd.part38.rar
    https://www.bigfile.to/file/UXhhZJWUfbEb/gettahd.part39.rar
    https://www.bigfile.to/file/yTTURextGAtv/gettahd.part40.rar
    https://www.bigfile.to/file/DdkArEhHq2e3/gettahd.part41.rar
    https://www.bigfile.to/file/qhqSYYjQbzNS/gettahd.part42.rar
    https://www.bigfile.to/file/bWU4fcNWNTwz/gettahd.part43.rar
    https://www.bigfile.to/file/b39WUsyDVHWr/gettahd.part44.rar
    https://www.bigfile.to/file/CMFzMxne8bES/gettahd.part45.rar
    https://www.bigfile.to/file/ByJs88tekwn8/gettahd.part46.rar
    https://www.bigfile.to/file/YJZTaGbXhpTb/gettahd.part47.rar
    https://www.bigfile.to/file/XcqYv6sTpJVR/gettahd.part48.rar
    https://www.bigfile.to/file/8JajfRRutRZx/gettahd.part49.rar
    https://www.bigfile.to/file/j8QJ5gzdT6eJ/gettahd.part50.rar
    https://www.bigfile.to/file/pyKGzyhhTqbQ/gettahd.part51.rar
    https://www.bigfile.to/file/Sd44YmBmNEJR/gettahd.part52.rar
    https://www.bigfile.to/file/ygdNQNkuEnSG/gettahd.part53.rar

      Fecha y hora actual: Mar Oct 17, 2017 4:53 pm