JAPAN SUFFERING

EL MEJOR FORO DE DESCARGAS DE MUSICA, JUEGOS Y VIDEOS.

JAPAN SUFFERING FORO DE CALIDAD Y CANTIDAD, SOMOS MAS QUE SOLO UN FORO...

    Hannibal Rising (2007)(FULL 1080p)(Ing-Lat)

    Comparte

    pomposos
    JS Guest
    JS Guest

    Mensajes : 5619
    Reputación : 0
    Fecha de inscripción : 29/10/2013

    Hannibal Rising (2007)(FULL 1080p)(Ing-Lat)

    Mensaje por pomposos el Lun Mar 06, 2017 9:25 am




    Titulo original Hannibal Rising
    Ano 2007
    Duracion 117 min.
    Pais Francia
    Director Peter Webber
    Guion Thomas Harris (Novela: Thomas Harris)
    Musica Ilan Eshkeri, Shigeru Umebayashi
    Fotografia Ben Davis
    Reparto Gaspard Ulliel, Gong Li, Rhys Ifans, Dominic West, Kevin McKidd, Richard Brake, Aaran Thomas, Helena-Lia Tachovska, Denis Menochet
    Productora Coproduccion Republica Checa-GB-Francia-Italia
    Genero Thriller | Precuela. Asesinos en serie. Samurais
    Sinopsis Adaptacion de una novela de Thomas Harris (2006). La historia de Lecter comienza en Europa Oriental, a finales de la Segunda Guerra Mundial (1939-1945). Siendo un nino, ademas de presenciar el asesinato de sus padres, fue testigo de otras terribles atrocidades que lo marcaran para siempre.

    Código:

    General
    Hannibal Rising (2007) [FULL 1080p Dual]
    Format : Matroska
    Format version : Version 4 / Version 2
    File size : 3.45 GiB
    Duration : 2h 0mn
    Overall bit rate : 4 096 Kbps
    Movie name : Hannibal Rising (2007) [FULL 1080p Dual]
    Encoded date : UTC 2014-02-26 13:14:37
    Writing application : mkvmerge v6.0.0 (Coming Up For Air) built on Jan 20 2013 09:52:00
    Writing library : libebml v1.3.0 + libmatroska v1.4.0
    Video
    ID : 1
    Format : AVC
    Format/Info : Advanced Video Codec
    Format profile : Main@L4.0
    Format settings, CABAC : Yes
    Format settings, ReFrames : 4 frames
    Codec ID : V_MPEG4/ISO/AVC
    Duration : 2h 0mn
    Bit rate : 3 502 Kbps
    Width : 1 920 pixels
    Height : 1 080 pixels
    Display aspect ratio : 16:9
    Frame rate mode : Constant
    Frame rate : 24.000 fps
    Color space : YUV
    Chroma subsampling : 4:2:0
    Bit depth : 8 bits
    Scan type : Progressive
    Bits/(Pixel*Frame) : 0.070
    Stream size : 2.95 GiB (86%)
    Writing library : x264 core 130 r2273 b3065e6
    Default : Yes
    Forced : No
    Color primaries : BT.709
    Transfer characteristics : BT.709
    Matrix coefficients : BT.709
    Audio #1
    ID : 2
    Format : AC-3
    Format/Info : Audio Coding 3
    Mode extension : CM (complete main)
    Format settings, Endianness : Big
    Codec ID : A_AC3
    Duration : 2h 0mn
    Bit rate mode : Constant
    Bit rate : 192 Kbps
    Channel count : 2 channels
    Channel positions : Front: L R
    Sampling rate : 48.0 KHz
    Bit depth : 16 bits
    Compression mode : Lossy
    Stream size : 166 MiB (5%)
    Title : Audio Latino
    Language : Spanish
    Default : Yes
    Forced : No
    Audio #2
    ID : 3
    Format : AC-3
    Format/Info : Audio Coding 3
    Mode extension : CM (complete main)
    Format settings, Endianness : Big
    Codec ID : A_AC3
    Duration : 2h 0mn
    Bit rate mode : Constant
    Bit rate : 320 Kbps
    Channel count : 6 channels
    Channel positions : Front: L C R, Side: L R, LFE
    Sampling rate : 44.1 KHz
    Bit depth : 16 bits
    Compression mode : Lossy
    Stream size : 276 MiB (8%)
    Title : Audio Ingles
    Language : English
    Default : No
    Forced : No
    Text #1
    ID : 4
    Format : UTF-8
    Codec ID : S_TEXT/UTF8
    Codec ID/Info : UTF-8 Plain Text
    Title : Subtitulos Latino
    Language : Spanish
    Default : No
    Forced : No
    Text #2
    ID : 5
    Format : UTF-8
    Codec ID : S_TEXT/UTF8
    Codec ID/Info : UTF-8 Plain Text
    Title : Subtitulos Ingles
    Language : English
    Default : No
    Forced : No
    Text #3
    ID : 6
    Format : UTF-8
    Codec ID : S_TEXT/UTF8
    Codec ID/Info : UTF-8 Plain Text
    Default : Yes
    Forced : No









    Código:

    https://www.bigfile.to/file/2CPsEZgyz5uJ/hanibrisihd.part01.rar
    https://www.bigfile.to/file/uuY5McEMuuvM/hanibrisihd.part02.rar
    https://www.bigfile.to/file/ZnZYt4YpDvdr/hanibrisihd.part03.rar
    https://www.bigfile.to/file/cCyQqJCnGC6g/hanibrisihd.part04.rar
    https://www.bigfile.to/file/vjXS7TccdEBy/hanibrisihd.part05.rar
    https://www.bigfile.to/file/zZ9TEcmNfDRA/hanibrisihd.part06.rar
    https://www.bigfile.to/file/CPd4Hx7q6xYw/hanibrisihd.part07.rar
    https://www.bigfile.to/file/StXZBvUk7cc8/hanibrisihd.part08.rar
    https://www.bigfile.to/file/xJw969yn76AS/hanibrisihd.part09.rar
    https://www.bigfile.to/file/s7MGVtKaPNHA/hanibrisihd.part10.rar
    https://www.bigfile.to/file/NJUTMxW9t7yM/hanibrisihd.part11.rar
    https://www.bigfile.to/file/XAtnm9rsUyPs/hanibrisihd.part12.rar
    https://www.bigfile.to/file/xqZAws4SrnYU/hanibrisihd.part13.rar
    https://www.bigfile.to/file/9wMXp6kC7nWA/hanibrisihd.part14.rar
    https://www.bigfile.to/file/X32raPPg7N5H/hanibrisihd.part15.rar

      Fecha y hora actual: Mar Oct 17, 2017 4:54 pm