JAPAN SUFFERING

EL MEJOR FORO DE DESCARGAS DE MUSICA, JUEGOS Y VIDEOS.

JAPAN SUFFERING FORO DE CALIDAD Y CANTIDAD, SOMOS MAS QUE SOLO UN FORO...

    Me Before You (2016)(FullHD 720p)(Ing-Lat)

    Comparte

    pomposos
    JS Guest
    JS Guest

    Mensajes : 4742
    Reputación : 0
    Fecha de inscripción : 29/10/2013

    Me Before You (2016)(FullHD 720p)(Ing-Lat)

    Mensaje por pomposos el Lun Mar 06, 2017 10:22 am




    Titulo original: Me Before You
    Ano: 2016
    Duracion: 110 min.
    Pais: Estados Unidos
    Director: Thea Sharrock
    Reparto: Emilia Clarke, Sam Claflin, Matthew Lewis, Charles Dance, Vanessa Kirby, Jenna Coleman, Janet McTeer, Brendan Coyle, Ben Lloyd-Hughes, Hannah Flynn, Amber Elizabeth, Stephen Peacocke, Alexander Cooper, Richard Gouldin, Tony Paul West
    Productora: Metro-Goldwyn-Mayer (MGM) / New Line Cinema
    Genero: Romance | Drama romantico. Discapacidad. Young Adult
    Sinopsis: Louisa �Lou� Clark (Emilia Clarke), una chica inestable y creativa, reside en un pequeno pueblo de la campina inglesa. Vive sin rumbo y va de un trabajo a otro para ayudar a su familia a llegar a fin de mes. Sin embargo, un nuevo trabajo pondra' a prueba su habitual alegria. En el castillo local, se ocupa de cuidar y acompanar a Will Traynor (Sam Claflin), un joven y rico banquero que se quedo' paralitico tras un accidente


    [center]
    Código:

    General
    Format : Matroska
    Format version : Version 4 / Version 2
    File size : 5.29 GiB
    Duration : 1h 50mn
    Overall bit rate : 6 864 Kbps
    Movie name : Me Before You (2016) 720p
    Encoded date : UTC 2016-08-16 17:40:01
    Writing application : mkvmerge v8.3.0 ('Over the Horizon') 64bit
    Writing library : libebml v1.3.1 + libmatroska v1.4.2
    Video
    ID : 1
    Format : AVC
    Format/Info : Advanced Video Codec
    Format profile : High@L4.1
    Format settings, CABAC : Yes
    Format settings, ReFrames : 5 frames
    Codec ID : V_MPEG4/ISO/AVC
    Duration : 1h 50mn
    Bit rate : 5 586 Kbps
    Width : 1 280 pixels
    Height : 536 pixels
    Display aspect ratio : 2.40:1
    Frame rate mode : Constant
    Frame rate : 23.976 fps
    Color space : YUV
    Chroma subsampling : 4:2:0
    Bit depth : 8 bits
    Scan type : Progressive
    Bits/(Pixel*Frame) : 0.340
    Stream size : 4.19 GiB (79%)
    Title : Me Before You (2016) 720p
    Language : English
    Default : Yes
    Forced : No
    Audio #1
    ID : 2
    Format : AC-3
    Format/Info : Audio Coding 3
    Mode extension : CM (complete main)
    Format settings, Endianness : Big
    Codec ID : A_AC3
    Duration : 3h 14mn
    Bit rate mode : Constant
    Bit rate : 448 Kbps
    Channel(s) : 6 channels
    Channel positions : Front: L C R, Side: L R, LFE
    Sampling rate : 48.0 KHz
    Bit depth : 16 bits
    Compression mode : Lossy
    Stream size : 622 MiB (9%)
    Title : AC3 5.1
    Language : Spanish
    Default : Yes
    Forced : No
    Audio #2
    ID : 3
    Format : AC-3
    Format/Info : Audio Coding 3
    Mode extension : CM (complete main)
    Format settings, Endianness : Big
    Codec ID : A_AC3
    Duration : 3h 14mn
    Bit rate mode : Constant
    Bit rate : 640 Kbps
    Channel(s) : 6 channels
    Channel positions : Front: L C R, Side: L R, LFE
    Sampling rate : 48.0 KHz
    Bit depth : 16 bits
    Compression mode : Lossy
    Stream size : 888 MiB (13%)
    Title : AC3 5.1
    Language : English
    Default : No
    Forced : No
    Text
    ID : 4
    Format : UTF-8
    Codec ID : S_TEXT/UTF8
    Codec ID/Info : UTF-8 Plain Text
    Language : Spanish
    Default : No
    Forced : No









    Código:

    https://www.bigfile.to/file/EwBSMnpu28sp/meboyghd.part01.rar
    https://www.bigfile.to/file/drVpQhDpv9BC/meboyghd.part02.rar
    https://www.bigfile.to/file/UJ5JGDaNvDRd/meboyghd.part03.rar
    https://www.bigfile.to/file/BAg8tHUWDayx/meboyghd.part04.rar
    https://www.bigfile.to/file/mkwMD7KDTGHg/meboyghd.part05.rar
    https://www.bigfile.to/file/pzk9wNk9xmG9/meboyghd.part06.rar
    https://www.bigfile.to/file/73KdP9Pkby36/meboyghd.part07.rar
    https://www.bigfile.to/file/tkG9U4hkzYdV/meboyghd.part08.rar
    https://www.bigfile.to/file/uVKZ4XXT2NmY/meboyghd.part09.rar
    https://www.bigfile.to/file/yfZnFtQ6Pc8X/meboyghd.part10.rar
    https://www.bigfile.to/file/JrWsaenZemGd/meboyghd.part11.rar
    https://www.bigfile.to/file/JKzvQCKw9mKw/meboyghd.part12.rar
    https://www.bigfile.to/file/zV5pkuudkxjD/meboyghd.part13.rar
    https://www.bigfile.to/file/SHugnHRbVMHM/meboyghd.part14.rar
    https://www.bigfile.to/file/vrvyEh3gwCVr/meboyghd.part15.rar
    https://www.bigfile.to/file/PeTM7XTfAHBd/meboyghd.part16.rar
    https://www.bigfile.to/file/dS8E6eXYMQZB/meboyghd.part17.rar
    https://www.bigfile.to/file/36M3zcYSydtn/meboyghd.part18.rar
    https://www.bigfile.to/file/zt8ThrYUsKZz/meboyghd.part19.rar
    https://www.bigfile.to/file/37PVVhRu6rxP/meboyghd.part20.rar
    https://www.bigfile.to/file/nTKaYd3c7Vx5/meboyghd.part21.rar
    https://www.bigfile.to/file/wY3DgmTymrGj/meboyghd.part22.rar

      Fecha y hora actual: Mar Ago 22, 2017 11:20 am