JAPAN SUFFERING

EL MEJOR FORO DE DESCARGAS DE MUSICA, JUEGOS Y VIDEOS.

JAPAN SUFFERING FORO DE CALIDAD Y CANTIDAD, SOMOS MAS QUE SOLO UN FORO...

    Need for Speed (2014)(3D H-SBS 1080p)(Ing-Lat)

    Comparte

    pomposos
    JS Guest
    JS Guest

    Mensajes : 5972
    Reputación : 0
    Fecha de inscripción : 29/10/2013

    Need for Speed (2014)(3D H-SBS 1080p)(Ing-Lat)

    Mensaje por pomposos el Lun Mar 06, 2017 10:46 am




    Titulo original: Need For Speed
    Titulo en Latino: Need for Speed - La pelicula
    Ano: 2014
    Duracion: 130 min.
    Pais: Estados Unidos
    Director: Scott Waugh
    Guion: George Gatins, John Gatins, George Nolfi
    Musica: Nathan Furst
    Fotografia: Shane Hurlbut
    Reparto: Aaron Paul, Dominic Cooper, Imogen Poots, Michael Keaton, Scott Mescudi, Dakota Johnson, Rami Malek, Nick Chinlund, Ramon Rodriguez, Kid Cudi, Han Soto, Carmela Zumbado, Harrison Gilbertson
    Productora: Electronic Arts / DreamWorks SKG / Reliance Entertainment / Bandito Brothers
    Genero: Accion | Coches / Automovilismo. Venganza. Videojuego. 3D
    SINOPSIS: Cuenta la historia de un piloto de carreras clandestinas que posee su propio garaje para modificar sus coches y hacerlos mas rapidos. Sin embargo, es enviado a prision cuando su mejor amigo es asesinado en una de estas competiciones, y buscara' vengarse cuando quede en libertad. Adaptacion al cine de la saga de videojuegos homonima.

    [center]
    Código:

    General
    Complete name                            : Need for Speed (2014) 3D H-SBS 1080p BDRip Dual.mkv
    Format                                  : Matroska
    Format version                          : Version 4 / Version 2
    File size                                : 13.6 GiB
    Duration                                : 2h 10mn
    Overall bit rate                        : 14.9 Mbps
    Encoded date                            : UTC 2014-07-19 21:08:06
    Writing application                      : mkvmerge v6.8.0 ('Theme for Great Cities') 64bit built on Mar  2 2014 21:34:26
    Writing library                          : libebml v1.3.0 + libmatroska v1.4.1
    Video
    ID                                      : 1
    Format                                  : AVC
    Format/Info                              : Advanced Video Codec
    Format profile                          : High@L4.1
    Format settings, CABAC                  : Yes
    Format settings, ReFrames                : 4 frames
    Codec ID                                : V_MPEG4/ISO/AVC
    Duration                                : 2h 10mn
    Bit rate                                : 11.8 Mbps
    Nominal bit rate                        : 12.5 Mbps
    Width                                    : 1 920 pixels
    Height                                  : 1 080 pixels
    Display aspect ratio                    : 16:9
    Frame rate mode                          : Constant
    Frame rate                              : 23.976 fps
    Color space                              : YUV
    Chroma subsampling                      : 4:2:0
    Bit depth                                : 8 bits
    Scan type                                : Progressive
    Bits/(Pixel*Frame)                      : 0.237
    Stream size                              : 10.8 GiB (79%)
    Writing library                          : x264 core 142 r2431 ac76440
    Language                                : English
    Default                                  : Yes
    Forced                                  : No
    Color primaries                          : BT.709
    Transfer characteristics                : BT.709
    Matrix coefficients                      : BT.709
    Audio #1
    ID                                      : 2
    Format                                  : AC-3
    Format/Info                              : Audio Coding 3
    Mode extension                          : CM (complete main)
    Format settings, Endianness              : Big
    Codec ID                                : A_AC3
    Duration                                : 2h 10mn
    Bit rate mode                            : Constant
    Bit rate                                : 640 Kbps
    Channel(s)                              : 6 channels
    Channel positions                        : Front: L C R, Side: L R, LFE
    Sampling rate                            : 48.0 KHz
    Bit depth                                : 16 bits
    Compression mode                        : Lossy
    Delay relative to video                  : -83ms
    Stream size                              : 599 MiB (4%)
    Title                                    : AC3 5.1
    Language                                : Spanish
    Default                                  : Yes
    Forced                                  : No
    Audio #2
    ID                                      : 3
    Format                                  : AC-3
    Format/Info                              : Audio Coding 3
    Mode extension                          : CM (complete main)
    Format settings, Endianness              : Big
    Codec ID                                : A_AC3
    Duration                                : 2h 10mn
    Bit rate mode                            : Constant
    Bit rate                                : 640 Kbps
    Channel(s)                              : 6 channels
    Channel positions                        : Front: L C R, Side: L R, LFE
    Sampling rate                            : 48.0 KHz
    Bit depth                                : 16 bits
    Compression mode                        : Lossy
    Delay relative to video                  : -83ms
    Stream size                              : 599 MiB (4%)
    Title                                    : AC3 5.1
    Language                                : English
    Default                                  : No
    Forced                                  : No
    Audio #3
    ID                                      : 4
    Format                                  : DTS
    Format/Info                              : Digital Theater Systems
    Mode                                    : 16
    Format settings, Endianness              : Big
    Codec ID                                : A_DTS
    Duration                                : 2h 10mn
    Bit rate mode                            : Constant
    Bit rate                                : 1 509 Kbps
    Channel(s)                              : 6 channels
    Channel positions                        : Front: L C R, Side: L R, LFE
    Sampling rate                            : 48.0 KHz
    Bit depth                                : 24 bits
    Compression mode                        : Lossy
    Stream size                              : 1.38 GiB (10%)
    Title                                    : DTS 5.1
    Language                                : English
    Default                                  : No
    Forced                                  : No
    Text #1
    ID                                      : 5
    Format                                  : UTF-8
    Codec ID                                : S_TEXT/UTF8
    Codec ID/Info                            : UTF-8 Plain Text
    Language                                : Spanish
    Default                                  : No
    Forced                                  : No
    Text #2
    ID                                      : 6
    Format                                  : UTF-8
    Codec ID                                : S_TEXT/UTF8
    Codec ID/Info                            : UTF-8 Plain Text
    Language                                : Spanish
    Default                                  : Yes
    Forced                                  : No









    Código:

    https://www.bigfile.to/file/wuujQYEB58ps/neespe3dhd.part01.rar
    https://www.bigfile.to/file/5xcrZ5UXsRFQ/neespe3dhd.part02.rar
    https://www.bigfile.to/file/eDtNhM62yYeb/neespe3dhd.part03.rar
    https://www.bigfile.to/file/y9cH8cdy2nqQ/neespe3dhd.part04.rar
    https://www.bigfile.to/file/fwbcVnQbcntZ/neespe3dhd.part05.rar
    https://www.bigfile.to/file/pYZyk8KXMQMa/neespe3dhd.part06.rar
    https://www.bigfile.to/file/JHECkVGShRbh/neespe3dhd.part07.rar
    https://www.bigfile.to/file/upbFxqyXvWYu/neespe3dhd.part08.rar
    https://www.bigfile.to/file/zySpaSBGynfb/neespe3dhd.part09.rar
    https://www.bigfile.to/file/bzX6MeuKwdqT/neespe3dhd.part10.rar
    https://www.bigfile.to/file/pVgTcrb8SAvz/neespe3dhd.part11.rar
    https://www.bigfile.to/file/YEuJwp2fpTQm/neespe3dhd.part12.rar
    https://www.bigfile.to/file/MgRVzyHZb6km/neespe3dhd.part13.rar
    https://www.bigfile.to/file/2R5KT3vpJfbf/neespe3dhd.part14.rar
    https://www.bigfile.to/file/W6wCXwf2xXSY/neespe3dhd.part15.rar
    https://www.bigfile.to/file/byDANptjS4c3/neespe3dhd.part16.rar
    https://www.bigfile.to/file/HjW5wF5ZD7Tu/neespe3dhd.part17.rar
    https://www.bigfile.to/file/RxNm6YCTcgEX/neespe3dhd.part18.rar
    https://www.bigfile.to/file/GrYAgrC4bMXq/neespe3dhd.part19.rar
    https://www.bigfile.to/file/Yr3juvkNrCSy/neespe3dhd.part20.rar
    https://www.bigfile.to/file/UzngTQcRfdTZ/neespe3dhd.part21.rar
    https://www.bigfile.to/file/z5GMrYet3S6U/neespe3dhd.part22.rar
    https://www.bigfile.to/file/Ymbg4sW59Rxd/neespe3dhd.part23.rar
    https://www.bigfile.to/file/n7CtHSJgazqE/neespe3dhd.part24.rar
    https://www.bigfile.to/file/P4peDmcrKGXF/neespe3dhd.part25.rar
    https://www.bigfile.to/file/v76awfNYcJAa/neespe3dhd.part26.rar
    https://www.bigfile.to/file/bnKNV7qSs2sz/neespe3dhd.part27.rar
    https://www.bigfile.to/file/VPvNPXXV67d7/neespe3dhd.part28.rar
    https://www.bigfile.to/file/Jdc5JemQmykE/neespe3dhd.part29.rar
    https://www.bigfile.to/file/hnF4JcfPp9rY/neespe3dhd.part30.rar
    https://www.bigfile.to/file/6bc4wn59u7vy/neespe3dhd.part31.rar
    https://www.bigfile.to/file/cTUAxfStNYmS/neespe3dhd.part32.rar
    https://www.bigfile.to/file/8QkHbzVycnh5/neespe3dhd.part33.rar
    https://www.bigfile.to/file/d3hqsf3t7cDK/neespe3dhd.part34.rar
    https://www.bigfile.to/file/WNzpghbFyCJT/neespe3dhd.part35.rar
    https://www.bigfile.to/file/unT2cxt4NtEx/neespe3dhd.part36.rar
    https://www.bigfile.to/file/8pw8QxBZewbQ/neespe3dhd.part37.rar
    https://www.bigfile.to/file/Uh3G84Mw4cdH/neespe3dhd.part38.rar
    https://www.bigfile.to/file/KcUxhNvJ2FuU/neespe3dhd.part39.rar
    https://www.bigfile.to/file/hrrmDjaZ3kdm/neespe3dhd.part40.rar
    https://www.bigfile.to/file/RdgGbgBXetgY/neespe3dhd.part41.rar
    https://www.bigfile.to/file/g3Ks8UfVPcM2/neespe3dhd.part42.rar
    https://www.bigfile.to/file/DQfMyeabRx9G/neespe3dhd.part43.rar
    https://www.bigfile.to/file/GWwC4YYyzmcR/neespe3dhd.part44.rar
    https://www.bigfile.to/file/J9eeaWjHSmvk/neespe3dhd.part45.rar
    https://www.bigfile.to/file/DGJ4EcTEcx4k/neespe3dhd.part46.rar
    https://www.bigfile.to/file/NbHvjE8xKyxJ/neespe3dhd.part47.rar
    https://www.bigfile.to/file/eTykmmWF6Bhz/neespe3dhd.part48.rar
    https://www.bigfile.to/file/VvZQh6VWpN5w/neespe3dhd.part49.rar
    https://www.bigfile.to/file/cBmrm84xxHHV/neespe3dhd.part50.rar
    https://www.bigfile.to/file/W7umnXeqherm/neespe3dhd.part51.rar
    https://www.bigfile.to/file/vUFVzWT72KHA/neespe3dhd.part52.rar
    https://www.bigfile.to/file/Dne288FVkFZr/neespe3dhd.part53.rar
    https://www.bigfile.to/file/J2WtxFRM7aDe/neespe3dhd.part54.rar
    https://www.bigfile.to/file/HXFBhTmbnhn9/neespe3dhd.part55.rar
    https://www.bigfile.to/file/YdGdqqKZUgkG/neespe3dhd.part56.rar

      Fecha y hora actual: Miér Dic 13, 2017 5:00 pm