JAPAN SUFFERING

EL MEJOR FORO DE DESCARGAS DE MUSICA, JUEGOS Y VIDEOS.

JAPAN SUFFERING FORO DE CALIDAD Y CANTIDAD, SOMOS MAS QUE SOLO UN FORO...

    Now You See Me 2 (2016)(FullHD 720p)(Ing-Lat)

    Comparte

    pomposos
    JS Guest
    JS Guest

    Mensajes : 5626
    Reputación : 0
    Fecha de inscripción : 29/10/2013

    Now You See Me 2 (2016)(FullHD 720p)(Ing-Lat)

    Mensaje por pomposos el Lun Mar 06, 2017 7:54 am




    Titulo original: Now You See Me 2
    Ano: 2016
    Duracion: 129 min
    Pais: Estados Unidos
    Director: Jon Chu
    Reparto: Mark Ruffalo, Woody Harrelson, Jesse Eisenberg, Dave Franco, Morgan Freeman, Michael Caine, Daniel Radcliffe, Lizzy Caplan, Jay Chou, Tsai Chin, Richard Laing
    Productora: Lionsgate / Summit Entertainment
    Genero: Thriller. Comedia | Magia. Secuela
    Sinopsis: Un ano despues de despistar al FBI y conseguir la admiracion del publico con sus espectaculos mentales, los cuatro jinetes vuelven a la luz publica, pero un nuevo enemigo se propone arruinar su golpe mas espectacular y peligroso hasta la fecha... Secuela de "Now You See Me" de 2013.

    [center]
    Código:

    General
    Format : Matroska
    Format version : Version 4 / Version 2
    File size : 6.04 GiB
    Duration : 2h 9mn
    Overall bit rate : 6 694 Kbps
    Movie name : Now You See Me 2 (2016) 720p
    Encoded date : UTC 2016-08-28 20:01:44
    Writing application : mkvmerge v8.3.0 (Over the Horizon) 64bit
    Writing library : libebml v1.3.1 + libmatroska v1.4.2
    Video
    ID : 1
    Format : AVC
    Format/Info : Advanced Video Codec
    Format profile : High@L4.1
    Format settings, CABAC : Yes
    Format settings, ReFrames : 5 frames
    Codec ID : V_MPEG4/ISO/AVC
    Duration : 2h 9mn
    Bit rate : 5 413 Kbps
    Width : 1 280 pixels
    Height : 536 pixels
    Display aspect ratio : 2.40:1
    Frame rate mode : Constant
    Frame rate : 23.976 fps
    Color space : YUV
    Chroma subsampling : 4:2:0
    Bit depth : 8 bits
    Scan type : Progressive
    Bits/(Pixel*Frame) : 0.329
    Stream size : 4.77 GiB (79%)
    Title : Now You See Me 2 (2016) 720p
    Language : English
    Default : Yes
    Forced : No
    Audio #1
    ID : 2
    Format : AC-3
    Format/Info : Audio Coding 3
    Mode extension : CM (complete main)
    Format settings, Endianness : Big
    Codec ID : A_AC3
    Duration : 2h 9mn
    Bit rate mode : Constant
    Bit rate : 640 Kbps
    Channel(s) : 6 channels
    Channel positions : Front: L C R, Side: L R, LFE
    Sampling rate : 48.0 KHz
    Bit depth : 16 bits
    Compression mode : Lossy
    Stream size : 592 MiB (10%)
    Title : AC3 5.1 Bluray
    Language : Spanish
    Default : Yes
    Forced : No
    Audio #2
    ID : 3
    Format : AC-3
    Format/Info : Audio Coding 3
    Mode extension : CM (complete main)
    Format settings, Endianness : Big
    Codec ID : A_AC3
    Duration : 2h 9mn
    Bit rate mode : Constant
    Bit rate : 640 Kbps
    Channel(s) : 6 channels
    Channel positions : Front: L C R, Side: L R, LFE
    Sampling rate : 48.0 KHz
    Bit depth : 16 bits
    Compression mode : Lossy
    Stream size : 592 MiB (10%)
    Title : AC3 5.1
    Language : English
    Default : No
    Forced : No
    Text #1
    ID : 4
    Format : UTF-8
    Codec ID : S_TEXT/UTF8
    Codec ID/Info : UTF-8 Plain Text
    Title : Subtitulos_Forzados
    Language : Spanish
    Default : Yes
    Forced : No
    Text #2
    ID : 5
    Format : UTF-8
    Codec ID : S_TEXT/UTF8
    Codec ID/Info : UTF-8 Plain Text
    Language : Spanish
    Default : No
    Forced : No









    Código:

    https://www.bigfile.to/file/ZNvskZJQZkuh/noyoseh2hd.part01.rar
    https://www.bigfile.to/file/4DDf8WS8SXxt/noyoseh2hd.part02.rar
    https://www.bigfile.to/file/WNkxUgkfpt5a/noyoseh2hd.part03.rar
    https://www.bigfile.to/file/TVaqD6HbTMv4/noyoseh2hd.part04.rar
    https://www.bigfile.to/file/UuHxhe9qsKzS/noyoseh2hd.part05.rar
    https://www.bigfile.to/file/5JGHwYFvgBHM/noyoseh2hd.part06.rar
    https://www.bigfile.to/file/nQuwcb5uRZNt/noyoseh2hd.part07.rar
    https://www.bigfile.to/file/au6WzMNQzxbM/noyoseh2hd.part08.rar
    https://www.bigfile.to/file/HwDt43bvfpFt/noyoseh2hd.part09.rar
    https://www.bigfile.to/file/rgbACmtpQjBC/noyoseh2hd.part10.rar
    https://www.bigfile.to/file/ySpX5YuFe4k4/noyoseh2hd.part11.rar
    https://www.bigfile.to/file/GYfy8pgVATcz/noyoseh2hd.part12.rar
    https://www.bigfile.to/file/gCqZqPkUpUZG/noyoseh2hd.part13.rar
    https://www.bigfile.to/file/DBW5NAkkjTud/noyoseh2hd.part14.rar
    https://www.bigfile.to/file/W7bZ8NZEjeNS/noyoseh2hd.part15.rar
    https://www.bigfile.to/file/5RqHBvQxt7Mq/noyoseh2hd.part16.rar
    https://www.bigfile.to/file/3PFEdXbnQ6bY/noyoseh2hd.part17.rar
    https://www.bigfile.to/file/7cz7cZnj9YTz/noyoseh2hd.part18.rar
    https://www.bigfile.to/file/GGE72D87zwkq/noyoseh2hd.part19.rar
    https://www.bigfile.to/file/NyBMeDxyyZ2K/noyoseh2hd.part20.rar
    https://www.bigfile.to/file/9ZeJPVgXGhGt/noyoseh2hd.part21.rar
    https://www.bigfile.to/file/HJW5WbgU9NFM/noyoseh2hd.part22.rar
    https://www.bigfile.to/file/r6gFEpEySbtW/noyoseh2hd.part23.rar
    https://www.bigfile.to/file/GWfbvA6dKCtb/noyoseh2hd.part24.rar
    https://www.bigfile.to/file/9kjgNb39Gy4n/noyoseh2hd.part25.rar

      Fecha y hora actual: Miér Oct 18, 2017 3:50 pm