JAPAN SUFFERING

EL MEJOR FORO DE DESCARGAS DE MUSICA, JUEGOS Y VIDEOS.

JAPAN SUFFERING FORO DE CALIDAD Y CANTIDAD, SOMOS MAS QUE SOLO UN FORO...

    Ouija Origin of Evil (2016)(FullHD 1080)(Ing-Lat)

    Comparte

    pomposos
    JS Guest
    JS Guest

    Mensajes : 5619
    Reputación : 0
    Fecha de inscripción : 29/10/2013

    Ouija Origin of Evil (2016)(FullHD 1080)(Ing-Lat)

    Mensaje por pomposos el Lun Mar 06, 2017 11:03 am




    Titulo original: Ouija: Origin of Evil
    Ano: 2016
    Duracion: 99 min.
    Pais: Estados Unidos
    Director: Mike Flanagan
    Reparto: Annalise Basso, Elizabeth Reaser, Lulu Wilson, Henry Thomas, Kate Siegel, Doug Jones, Lin Shaye, Alexis G. Zall, Sam Anderson, Ele Keats, Parker Mack, Lincoln Melcher, Eve Gordon, Chelsea Gonzalez, Gary Patrick Anderson, Bob Gebert
    Productora: Allspark Pictures / Blumhouse Productions / Hasbro
    Genero: Terror. Thriller | Sobrenatural. Anos 60. Precuela
    Sinopsis: Una joven usara' la ouija imprudentemente para intentar contactarse con su padre recientemente fallecido. Ella y su grupo de amigos deberan enfrentarse a sus peores temores cuando despierten a un ser malefico procedente del otro lado y al que solo ellos pueden devolver a su origen.


    [center]
    Código:

    General
    Format : Matroska
    Format version : Version 4 / Version 2
    File size : 9.07 GiB
    Duration : 1 h 38 min
    Overall bit rate : 13.1 Mb/s
    Movie name : Ouija: Origin of Evil (2016) 1080p
    Encoded date : UTC 2017-01-09 18:22:41
    Writing application : mkvmerge v9.3.1 ('Mask Machine') 32bit
    Writing library : libebml v1.3.4 + libmatroska v1.4.2
    Video
    ID : 1
    Format : AVC
    Format/Info : Advanced Video Codec
    Format profile : High@L4.1
    Format settings, CABAC : Yes
    Format settings, ReFrames : 4 frames
    Codec ID : V_MPEG4/ISO/AVC
    Duration : 1 h 38 min
    Bit rate : 9 565 kb/s
    Width : 1 920 pixels
    Height : 1 040 pixels
    Display aspect ratio : 1.85:1
    Frame rate mode : Constant
    Frame rate : 23.976 FPS
    Color space : YUV
    Chroma subsampling : 4:2:0
    Bit depth : 8 bits
    Scan type : Progressive
    Bits/(Pixel*Frame) : 0.200
    Stream size : 6.61 GiB (73%)
    Title : Ouija: Origin of Evil (2016) 1080p
    Language : English
    Default : Yes
    Forced : No
    Audio #1
    ID : 2
    Format : DTS
    Format/Info : Digital Theater Systems
    Mode : 16
    Format settings, Endianness : Big
    Codec ID : A_DTS
    Duration : 1 h 38 min
    Bit rate mode : Constant
    Bit rate : 768 kb/s
    Channel(s) : 6 channels
    Channel positions : Front: L C R, Side: L R, LFE
    Sampling rate : 48.0 kHz
    Frame rate : 93.750 FPS (512 spf)
    Bit depth : 24 bits
    Compression mode : Lossy
    Stream size : 543 MiB (6%)
    Title : DTS Bluray
    Language : Spanish
    Default : Yes
    Forced : No
    Audio #2
    ID : 3
    Format : AC-3
    Format/Info : Audio Coding 3
    Mode extension : CM (complete main)
    Format settings, Endianness : Big
    Codec ID : A_AC3
    Duration : 1 h 38 min
    Bit rate mode : Constant
    Bit rate : 640 kb/s
    Channel(s) : 6 channels
    Channel positions : Front: L C R, Side: L R, LFE
    Sampling rate : 48.0 kHz
    Frame rate : 31.250 FPS (1536 spf)
    Bit depth : 16 bits
    Compression mode : Lossy
    Stream size : 453 MiB (5%)
    Title : AC3 5.1 del DTS Bluray
    Language : Spanish
    Default : No
    Forced : No
    Audio #3
    ID : 4
    Format : DTS
    Format/Info : Digital Theater Systems
    Mode : 16
    Format settings, Endianness : Big
    Codec ID : A_DTS
    Duration : 1 h 38 min
    Bit rate mode : Constant
    Bit rate : 1 509 kb/s
    Channel(s) : 6 channels
    Channel positions : Front: L C R, Side: L R, LFE
    Sampling rate : 48.0 kHz
    Frame rate : 93.750 FPS (512 spf)
    Bit depth : 24 bits
    Compression mode : Lossy
    Stream size : 1.04 GiB (11%)
    Title : DTS
    Language : English
    Default : No
    Forced : No
    Audio #4
    ID : 5
    Format : AC-3
    Format/Info : Audio Coding 3
    Mode extension : CM (complete main)
    Format settings, Endianness : Big
    Codec ID : A_AC3
    Duration : 1 h 38 min
    Bit rate mode : Constant
    Bit rate : 640 kb/s
    Channel(s) : 6 channels
    Channel positions : Front: L C R, Side: L R, LFE
    Sampling rate : 48.0 kHz
    Frame rate : 31.250 FPS (1536 spf)
    Bit depth : 16 bits
    Compression mode : Lossy
    Stream size : 453 MiB (5%)
    Title : AC3 5.1
    Language : English
    Default : No
    Forced : No
    Text #1
    ID : 6
    Format : UTF-8
    Codec ID : S_TEXT/UTF8
    Codec ID/Info : UTF-8 Plain Text
    Duration : 1 h 31 min
    Bit rate : 0 b/s
    Count of elements : 15
    Stream size : 228 Bytes (0%)
    Language : Spanish
    Default : Yes
    Forced : No
    Text #2
    ID : 7
    Format : UTF-8
    Codec ID : S_TEXT/UTF8
    Codec ID/Info : UTF-8 Plain Text
    Duration : 1 h 38 min
    Bit rate : 38 b/s
    Count of elements : 1133
    Stream size : 28.0 KiB (0%)
    Language : Spanish
    Default : No
    Forced : No









    Código:

    https://www.bigfile.to/file/d66DAtmDHNvU/oevilghd.part01.rar
    https://www.bigfile.to/file/jneDfySJuUsZ/oevilghd.part02.rar
    https://www.bigfile.to/file/REPkmhJYgpTF/oevilghd.part03.rar
    https://www.bigfile.to/file/k9KHsFQeQWgk/oevilghd.part04.rar
    https://www.bigfile.to/file/mUWGVxNBBXrN/oevilghd.part05.rar
    https://www.bigfile.to/file/eC5pDnkX55J4/oevilghd.part06.rar
    https://www.bigfile.to/file/7UwGaYwedY8S/oevilghd.part07.rar
    https://www.bigfile.to/file/PF8ryzHrZUPx/oevilghd.part08.rar
    https://www.bigfile.to/file/s8daNWtgDhtZ/oevilghd.part09.rar
    https://www.bigfile.to/file/8c4fAH8CPrm4/oevilghd.part10.rar
    https://www.bigfile.to/file/vGDz6FxGQ4KM/oevilghd.part11.rar
    https://www.bigfile.to/file/qYhBt3aEyxqd/oevilghd.part12.rar
    https://www.bigfile.to/file/NqUAz6YZSdRM/oevilghd.part13.rar
    https://www.bigfile.to/file/QKaRkTUXjGQ5/oevilghd.part14.rar
    https://www.bigfile.to/file/AD2DX9RKXdzV/oevilghd.part15.rar
    https://www.bigfile.to/file/RPwemzVQyJU5/oevilghd.part16.rar
    https://www.bigfile.to/file/5XkN5e9TvWEM/oevilghd.part17.rar
    https://www.bigfile.to/file/mxFsE8juYqvT/oevilghd.part18.rar
    https://www.bigfile.to/file/t2czwqWNGunp/oevilghd.part19.rar
    https://www.bigfile.to/file/khA8EGxwtKjH/oevilghd.part20.rar
    https://www.bigfile.to/file/MYmGEwpG6Pqe/oevilghd.part21.rar
    https://www.bigfile.to/file/sXhAhskMm9Cy/oevilghd.part22.rar
    https://www.bigfile.to/file/B4aQRXrX3F2g/oevilghd.part23.rar
    https://www.bigfile.to/file/YnyNqXJJpWbN/oevilghd.part24.rar
    https://www.bigfile.to/file/ZdnuRxajH3gf/oevilghd.part25.rar
    https://www.bigfile.to/file/BWNFAMvxXZgB/oevilghd.part26.rar
    https://www.bigfile.to/file/Bnuqzaa69hvD/oevilghd.part27.rar
    https://www.bigfile.to/file/KGjy2aKVzKRj/oevilghd.part28.rar
    https://www.bigfile.to/file/dwxpbWVJNARs/oevilghd.part29.rar
    https://www.bigfile.to/file/mpM6vS4D4KFZ/oevilghd.part30.rar
    https://www.bigfile.to/file/z6nQADYvUSDD/oevilghd.part31.rar
    https://www.bigfile.to/file/nEJ6RzwR8J8Y/oevilghd.part32.rar
    https://www.bigfile.to/file/UGFF2jJKWbbJ/oevilghd.part33.rar
    https://www.bigfile.to/file/mjxyD38Ez2X9/oevilghd.part34.rar
    https://www.bigfile.to/file/qdneenmaSVfq/oevilghd.part35.rar
    https://www.bigfile.to/file/ryaEq6ezwk4s/oevilghd.part36.rar
    https://www.bigfile.to/file/X9HhbCKzNSMG/oevilghd.part37.rar

      Fecha y hora actual: Mar Oct 17, 2017 4:54 pm