JAPAN SUFFERING

EL MEJOR FORO DE DESCARGAS DE MUSICA, JUEGOS Y VIDEOS.

JAPAN SUFFERING FORO DE CALIDAD Y CANTIDAD, SOMOS MAS QUE SOLO UN FORO...

    Piranha 3D 2 (2012)(3D SBS 1080p)(Ing-Lat)

    Comparte

    pomposos
    JS Guest
    JS Guest

    Mensajes : 5626
    Reputación : 0
    Fecha de inscripción : 29/10/2013

    Piranha 3D 2 (2012)(3D SBS 1080p)(Ing-Lat)

    Mensaje por pomposos el Lun Mar 06, 2017 8:35 am




    Titulo original Piranha 3DD (Piranha 3D 2) aka
    Ano 2012
    Duracion 82 min.
    Pais Estados Unidos
    Director John Gulager
    Guion Marcus Dunstan, Patrick Melton
    Musica Elia Cmiral
    Fotografia Alexandre Lehmann
    Reparto Danielle Panabaker, Matt Bush, David Koechner, Katrina Bowden, Chris Zylka, Paul James Jordan, David Hasselhoff, Jean-Luc Bilodeau, Meagan Tandy, Ving Rhames, Hector Jimenez, Clu Gulager, Adrian Martinez, Gary Busey, Sierra Fisk, Christopher Lloyd, Irina Voronina, Kathy Sue Holtorf, Cody Kennedy, Tabitha Taylor
    Productora Atmosphere Entertainment MM / Chako Film Company / Dimension Films / Intellectual Properties Worldwide / Neo Art & Logic
    Genero Terror. Comedia | Comedia de terror. Parodia. Gore. Animales. Secuela. 3-D
    Sinopsis Un pueblo vera como las piranas ya no solo permaneceran en un lago sino que se abriran paso a traves de las tuberias llegando a hogares, piscinas e incluso a un parque acuatico conocido como "Wilderness Waters" donde seguir con su orgia sangrienta. Secuela de "Pirana 3D" (2010).

    Código:

    General
    Unique ID :
    Complete name : Piranha 2 3D SBS (2012) 1080p Dual.mkv
    Format : Matroska
    Format version : Version 4 / Version 2
    File size : 2.17 GiB
    Duration : 1h 22mn
    Overall bit rate : 3 757 Kbps
    Movie name : Piranha 2 3D SBS [2012][1080p Dual]
    Encoded date : UTC 2013-06-13 17:50:26
    Writing application : mkvmerge v6.2.0 (Promised Land) built on Apr 28 2013 12:22:01
    Writing library : libebml v1.3.0 + libmatroska v1.4.0
    Video
    ID : 1
    Format : AVC
    Format/Info : Advanced Video Codec
    Format profile : High@L4.0
    Format settings, CABAC : Yes
    Format settings, ReFrames : 4 frames
    Codec ID : V_MPEG4/ISO/AVC
    Duration : 1h 22mn
    Bit rate : 2 502 Kbps
    Width : 1 920 pixels
    Height : 1 080 pixels
    Display aspect ratio : 16:9
    Frame rate mode : Constant
    Frame rate : 23.976 fps
    Color space : YUV
    Chroma subsampling : 4:2:0
    Bit depth : 8 bits
    Scan type : Progressive
    Bits/(Pixel*Frame) : 0.050
    Stream size : 1.39 GiB (64%)
    Writing library : x264 core 125 r2200 999b753
    Default : Yes
    Forced : No
    Audio #1
    ID : 2
    Format : AC-3
    Format/Info : Audio Coding 3
    Mode extension : CM (complete main)
    Format settings, Endianness : Big
    Codec ID : A_AC3
    Duration : 1h 22mn
    Bit rate mode : Constant
    Bit rate : 640 Kbps
    Channel(s) : 6 channels
    Channel positions : Front: L C R, Side: L R, LFE
    Sampling rate : 48.0 KHz
    Bit depth : 16 bits
    Compression mode : Lossy
    Stream size : 379 MiB (17%)
    Title : spanish
    Default : Yes
    Forced : No
    Audio #2
    ID : 3
    Format : AC-3
    Format/Info : Audio Coding 3
    Mode extension : CM (complete main)
    Format settings, Endianness : Big
    Codec ID : A_AC3
    Duration : 1h 22mn
    Bit rate mode : Constant
    Bit rate : 640 Kbps
    Channel(s) : 6 channels
    Channel positions : Front: L C R, Side: L R, LFE
    Sampling rate : 48.0 KHz
    Bit depth : 16 bits
    Compression mode : Lossy
    Stream size : 379 MiB (17%)
    Title : english
    Default : No
    Forced : No
    Text #1
    ID : 4
    Format : UTF-8
    Codec ID : S_TEXT/UTF8
    Codec ID/Info : UTF-8 Plain Text
    Default : Yes
    Forced : No
    Text #2
    ID : 5
    Format : UTF-8
    Codec ID : S_TEXT/UTF8
    Codec ID/Info : UTF-8 Plain Text
    Title : spanish
    Default : No
    Forced : No







    Código:

    https://www.bigfile.to/file/PAhzdsE86GYe/pitan123d.part01.rar
    https://www.bigfile.to/file/vuKNarH9ygpn/pitan123d.part02.rar
    https://www.bigfile.to/file/fvKZFxTyZMbP/pitan123d.part03.rar
    https://www.bigfile.to/file/BKGmFX8cjSWD/pitan123d.part04.rar
    https://www.bigfile.to/file/Y7gaervFnTxe/pitan123d.part05.rar
    https://www.bigfile.to/file/kGvxHd6pvWY8/pitan123d.part06.rar
    https://www.bigfile.to/file/6qZbKYkYWjdZ/pitan123d.part07.rar
    https://www.bigfile.to/file/8ZGYUcvzKCPz/pitan123d.part08.rar
    https://www.bigfile.to/file/h6MkdRPWRAJt/pitan123d.part09.rar

      Fecha y hora actual: Miér Oct 18, 2017 3:50 pm