JAPAN SUFFERING

EL MEJOR FORO DE DESCARGAS DE MUSICA, JUEGOS Y VIDEOS.

JAPAN SUFFERING FORO DE CALIDAD Y CANTIDAD, SOMOS MAS QUE SOLO UN FORO...

    Sausage Party (2016)(FullHD 1080)(Ing-Lat)

    Comparte

    pomposos
    JS Guest
    JS Guest

    Mensajes : 5972
    Reputación : 0
    Fecha de inscripción : 29/10/2013

    Sausage Party (2016)(FullHD 1080)(Ing-Lat)

    Mensaje por pomposos el Lun Mar 06, 2017 12:00 pm




    Titulo original: Sausage Party
    Titulo en Latino: La fiesta de las salchichas
    Ano: 2016
    Duracion: 89 min.
    Pais: Estados Unidos
    Director: Conrad Vernon, Greg Tiernan
    Guion: Evan Goldberg, Kyle Hunter, Seth Rogen, Ariel Shaffir (Historia: Seth Rogen, Evan Goldberg, Jonah Hill)
    Musica: Christopher Lennertz, Alan Menken
    Fotografia: Animation
    Reparto: Animation
    Productora: Annapurna Pictures / Nitrogen Studios Canada / Point Grey Pictures
    Genero: Animacion. Comedia. Intriga | 3-D. Animacion para adultos. Comedia negra. Satira
    Sinopsis: En un supermercado, los alimentos que viven alli' adoran a los compradores humanos considerandolos como dioses que los llevan al "Gran Mas Alla'" cuando se compran. Entre los productos comestibles del supermercado esta' una salchicha llamada Frank, que suena con vivir con su novia, un bollo para perritos calientes, Brenda, en el "Gran Mas Alla'", donde finalmente puedan consumar su relacion. Los paquetes de Frank y Brenda son elegidos pero sus celebraciones son interrumpidas cuando un frasco de Miel Mostaza devuelta, que tambien ha sido elegido, afirma a los otros productos comestibles en la cesta de la compra que el "Gran Mas Alla'" no es lo que creen.

    [center]
    Código:

    General
    Complete name                            : Sausage Party (2016) 1080p BDRip Dual Latino-Ingles [Subt. Esp].mkv
    Format                                  : Matroska
    Format version                          : Version 4 / Version 2
    File size                                : 6.18 GiB
    Duration                                : 1 h 28 min
    Overall bit rate                        : 9 962 kb/s
    Movie name                              : Sausage Party (2016) 1080p BDRip Dual Latino-Ingles [Subt. Esp]
    Encoded date                            : UTC 2017-01-17 14:41:54
    Writing application                      : mkvmerge v9.5.0 ('Quiet Fire') 64bit
    Writing library                          : libebml v1.3.4 + libmatroska v1.4.5
    Video
    ID                                      : 1
    Format                                  : AVC
    Format/Info                              : Advanced Video Codec
    Format profile                          : High@L4.1
    Format settings, CABAC                  : Yes
    Format settings, ReFrames                : 4 frames
    Codec ID                                : V_MPEG4/ISO/AVC
    Duration                                : 1 h 28 min
    Bit rate                                : 7 555 kb/s
    Width                                    : 1 920 pixels
    Height                                  : 1 040 pixels
    Display aspect ratio                    : 1.85:1
    Frame rate mode                          : Constant
    Frame rate                              : 23.976 (24000/1001) FPS
    Color space                              : YUV
    Chroma subsampling                      : 4:2:0
    Bit depth                                : 8 bits
    Scan type                                : Progressive
    Bits/(Pixel*Frame)                      : 0.158
    Stream size                              : 4.68 GiB (76%)
    Title                                    : Sausage Party (2016) 1080p BDRip Dual Latino-Ingles [Subt. Esp]
    Writing library                          : x264 core 148 r2705 3f5ed56
    Language                                : English
    Default                                  : Yes
    Forced                                  : No
    Audio #1
    ID                                      : 2
    Format                                  : AC-3
    Format/Info                              : Audio Coding 3
    Mode extension                          : CM (complete main)
    Format settings, Endianness              : Big
    Codec ID                                : A_AC3
    Duration                                : 1 h 28 min
    Bit rate mode                            : Constant
    Bit rate                                : 256 kb/s
    Channel(s)                              : 2 channels
    Channel positions                        : Front: L R
    Sampling rate                            : 48.0 kHz
    Frame rate                              : 31.250 FPS (1536 spf)
    Bit depth                                : 16 bits
    Compression mode                        : Lossy
    Stream size                              : 163 MiB (3%)
    Title                                    : Sausage Party (2016) - Espanol Latino AC3 2.0 - 256 Kbps
    Language                                : Spanish
    Default                                  : Yes
    Forced                                  : No
    Audio #2
    ID                                      : 3
    Format                                  : AC-3
    Format/Info                              : Audio Coding 3
    Mode extension                          : CM (complete main)
    Format settings, Endianness              : Big
    Codec ID                                : A_AC3
    Duration                                : 1 h 28 min
    Bit rate mode                            : Constant
    Bit rate                                : 640 kb/s
    Channel(s)                              : 6 channels
    Channel positions                        : Front: L C R, Side: L R, LFE
    Sampling rate                            : 48.0 kHz
    Frame rate                              : 31.250 FPS (1536 spf)
    Bit depth                                : 16 bits
    Compression mode                        : Lossy
    Stream size                              : 406 MiB (6%)
    Title                                    : Sausage Party (2016) - Ingles AC3 5.1 - 640 Kbps
    Language                                : English
    Default                                  : No
    Forced                                  : No
    Audio #3
    ID                                      : 4
    Format                                  : DTS
    Format/Info                              : Digital Theater Systems
    Mode                                    : 16
    Format settings, Endianness              : Big
    Codec ID                                : A_DTS
    Duration                                : 1 h 28 min
    Bit rate mode                            : Constant
    Bit rate                                : 1 509 kb/s
    Channel(s)                              : 6 channels
    Channel positions                        : Front: L C R, Side: L R, LFE
    Sampling rate                            : 48.0 kHz
    Frame rate                              : 93.750 FPS (512 spf)
    Bit depth                                : 24 bits
    Compression mode                        : Lossy
    Stream size                              : 958 MiB (15%)
    Title                                    : Sausage Party (2016) - Ingles DTS 5.1 - 1509 Kbps
    Language                                : English
    Default                                  : No
    Forced                                  : No
    Text #1
    ID                                      : 5
    Format                                  : UTF-8
    Codec ID                                : S_TEXT/UTF8
    Codec ID/Info                            : UTF-8 Plain Text
    Duration                                : 1 h 22 min
    Bit rate                                : 77 b/s
    Count of elements                        : 1419
    Stream size                              : 46.9 KiB (0%)
    Title                                    : Sausage Party (2016) - Subtitulos Espanol
    Language                                : Spanish
    Default                                  : No
    Forced                                  : No
    Text #2
    ID                                      : 6
    Format                                  : UTF-8
    Codec ID                                : S_TEXT/UTF8
    Codec ID/Info                            : UTF-8 Plain Text
    Duration                                : 1 h 22 min
    Bit rate                                : 0 b/s
    Count of elements                        : 30
    Stream size                              : 554 Bytes (0%)
    Title                                    : Sausage Party (2016) - Subtitulos Espanol Forzados
    Language                                : Spanish
    Default                                  : Yes
    Forced                                  : No









    Código:

    https://www.bigfile.to/file/qZvEUkbtwPby/sauparthd.part01.rar
    https://www.bigfile.to/file/vjPg3ecmfxm6/sauparthd.part02.rar
    https://www.bigfile.to/file/yY4yKUaqDXyQ/sauparthd.part03.rar
    https://www.bigfile.to/file/e98E4rTpjT2U/sauparthd.part04.rar
    https://www.bigfile.to/file/smFQtMX5Q9D5/sauparthd.part05.rar
    https://www.bigfile.to/file/Jg6tT2vusAp4/sauparthd.part06.rar
    https://www.bigfile.to/file/YMJkEP2VyYH9/sauparthd.part07.rar
    https://www.bigfile.to/file/yqJ7GJ5HsRXJ/sauparthd.part08.rar
    https://www.bigfile.to/file/myNvYvTyAPbD/sauparthd.part09.rar
    https://www.bigfile.to/file/KM7jWAA3GArN/sauparthd.part10.rar
    https://www.bigfile.to/file/EYeBFS3ub9FG/sauparthd.part11.rar
    https://www.bigfile.to/file/QQUMnBKEzMv2/sauparthd.part12.rar
    https://www.bigfile.to/file/4z6Da5Pgdeds/sauparthd.part13.rar
    https://www.bigfile.to/file/Up9WwDatq6UW/sauparthd.part14.rar
    https://www.bigfile.to/file/BfB6PRQAePbx/sauparthd.part15.rar
    https://www.bigfile.to/file/r96rT8hNZab4/sauparthd.part16.rar
    https://www.bigfile.to/file/SWyepu6qJMfr/sauparthd.part17.rar
    https://www.bigfile.to/file/9GG3SknxZVxn/sauparthd.part18.rar
    https://www.bigfile.to/file/zgCH98E3FBd3/sauparthd.part19.rar
    https://www.bigfile.to/file/PFdY3m3vdA9q/sauparthd.part20.rar
    https://www.bigfile.to/file/SAWGQCfjFxGk/sauparthd.part21.rar
    https://www.bigfile.to/file/A8vFaxbY86xW/sauparthd.part22.rar
    https://www.bigfile.to/file/w3Qctx6MyxSu/sauparthd.part23.rar
    https://www.bigfile.to/file/UJBXeMNhCS5Z/sauparthd.part24.rar
    https://www.bigfile.to/file/YKVWRxQfvQ5U/sauparthd.part25.rar
    https://www.bigfile.to/file/jf9tRamwarPA/sauparthd.part26.rar

      Fecha y hora actual: Miér Dic 13, 2017 9:19 am