JAPAN SUFFERING

EL MEJOR FORO DE DESCARGAS DE MUSICA, JUEGOS Y VIDEOS.

JAPAN SUFFERING FORO DE CALIDAD Y CANTIDAD, SOMOS MAS QUE SOLO UN FORO...

    Small Soldiers (1998)(FullHD 1080)

    Comparte

    pomposos
    JS Guest
    JS Guest

    Mensajes : 4742
    Reputación : 0
    Fecha de inscripción : 29/10/2013

    Small Soldiers (1998)(FullHD 1080)

    Mensaje por pomposos el Lun Mar 06, 2017 12:08 pm



    Código:
    http://www.imdb.com/title/tt0122718/

    Titulo original Small Soldiers
    Ano 1998
    Duracion 110 min.
    Pais Estados Unidos
    Director Joe Dante
    Guion Gavin Scott,Adam Rifkin
    Musica Jerry Goldsmith
    Fotografia Jamie Anderson
    Reparto Kirsten Dunst,Gregory Smith,Jay Mohr,Phil Hartman,Kevin Dunn,Denis Leary,Dick Miller,David Cross,Alexandra Wilson,Jacob Smith,Ann Magnuson,Wendy Schaal
    Productora Universal Pictures/Dreamworks Pictures
    Genero Fantastico. Accion. Animacion | Cine familiar
    Sinopsis El Comando Elite esta formado por una patrulla de munecos militares muy arrogantes y agresivos que han cobrado vida y escapado de sus cajas para acabar con los gorgonitas, unos munecos de aspecto extrano pero absolutamente pacificos que solo suenan con encontrar la isla de Gorgon. El adolescente Alan Abernathy se vera envuelto en esta contienda y tomara posiciones a favor de los Gorgonitas, lo que le llevara a el y a toda su familia a convertirse en el nuevo objetivo del Comando Elite, capaces de crear el caos en toda la ciudad.

    Código:

    General
    Small Soldiers (1998) [FULL 1080p Dual] CinemaniaHD.mkv
    Format : Matroska
    Format version : Version 4 / Version 2
    File size : 2.68 GiB
    Duration : 1h 49mn
    Overall bit rate : 3 493 Kbps
    Movie name : Small Soldiers (1998) [FULL 1080p Dual] CinemaniaHD
    Encoded date : UTC 2014-04-05 22:04:15
    Writing application : mkvmerge v6.5.0 ('Isn't she lovely') built on Oct 20 2013 12:50:05
    Writing library : libebml v1.3.0 + libmatroska v1.4.1
    Video
    ID : 1
    Format : AVC
    Format/Info : Advanced Video Codec
    Format profile : High@L4.1
    Format settings, CABAC : Yes
    Format settings, ReFrames : 2 frames
    Codec ID : V_MPEG4/ISO/AVC
    Duration : 1h 49mn
    Bit rate : 2 911 Kbps
    Width : 1 920 pixels
    Height : 1 080 pixels
    Display aspect ratio : 16:9
    Frame rate mode : Constant
    Frame rate : 23.976 fps
    Color space : YUV
    Chroma subsampling : 4:2:0
    Bit depth : 8 bits
    Scan type : Progressive
    Bits/(Pixel*Frame) : 0.059
    Stream size : 2.23 GiB (83%)
    Title : [Tienes que estar registrado y conectado para ver este vínculo]
    Writing library : x264 core
    Default : Yes
    Forced : No
    Color primaries : BT.709
    Transfer characteristics : BT.709
    Matrix coefficients : BT.709
    Audio #1
    ID : 2
    Format : AC-3
    Format/Info : Audio Coding 3
    Format profile : Dolby Digital
    Mode extension : CM (complete main)
    Format settings, Endianness : Big
    Codec ID : A_AC3
    Duration : 1h 49mn
    Bit rate mode : Constant
    Bit rate : 192 Kbps
    Channel count : 2 channels
    Channel positions : Front: L R
    Sampling rate : 48.0 KHz
    Bit depth : 16 bits
    Compression mode : Lossy
    Delay relative to video : 22ms
    Stream size : 151 MiB (5%)
    Title : Audio Latino [[Tienes que estar registrado y conectado para ver este vínculo]
    Language : Spanish
    Default : Yes
    Forced : No
    Audio #2
    ID : 3
    Format : AC-3
    Format/Info : Audio Coding 3
    Mode extension : CM (complete main)
    Format settings, Endianness : Big
    Codec ID : A_AC3
    Duration : 1h 49mn
    Bit rate mode : Constant
    Bit rate : 320 Kbps
    Channel count : 6 channels
    Channel positions : Front: L C R, Side: L R, LFE
    Sampling rate : 48.0 KHz
    Bit depth : 16 bits
    Compression mode : Lossy
    Stream size : 252 MiB (9%)
    Title : Audio Ingles [[Tienes que estar registrado y conectado para ver este vínculo]
    Language : English
    Default : No
    Forced : No
    Text #1
    ID : 4
    Format : UTF-8
    Codec ID : S_TEXT/UTF8
    Codec ID/Info : UTF-8 Plain Text
    Title : Subtitulos Latino [[Tienes que estar registrado y conectado para ver este vínculo]
    Language : Spanish
    Default : No
    Forced : No
    Text #2
    ID : 5
    Format : PGS
    Muxing mode : zlib
    Codec ID : S_HDMV/PGS
    Codec ID/Info : The same subtitle format used on BDs/HD-DVDs
    Title : Subtitulos Ingles [[Tienes que estar registrado y conectado para ver este vínculo]
    Language : English
    Default : No
    Forced : No
    Text #3
    ID : 6
    Format : UTF-8
    Codec ID : S_TEXT/UTF8
    Codec ID/Info : UTF-8 Plain Text
    Title : [Tienes que estar registrado y conectado para ver este vínculo]
    Default : Yes
    Forced : No









    Código:

    https://www.bigfile.to/file/f2thKyA2dQj3/smsoldhd.part01.rar
    https://www.bigfile.to/file/WWk8c9vDdnm2/smsoldhd.part02.rar
    https://www.bigfile.to/file/cj6khf8FARPP/smsoldhd.part03.rar
    https://www.bigfile.to/file/CDmmS6PwzRCW/smsoldhd.part04.rar
    https://www.bigfile.to/file/Vhtvgpr7VfSn/smsoldhd.part05.rar
    https://www.bigfile.to/file/9SBStPJWDJ9H/smsoldhd.part06.rar
    https://www.bigfile.to/file/Ham8nTTX3p2C/smsoldhd.part07.rar
    https://www.bigfile.to/file/V3h9XYfqfc9e/smsoldhd.part08.rar
    https://www.bigfile.to/file/nMakqJbHxkqj/smsoldhd.part09.rar
    https://www.bigfile.to/file/2KzVzf7VgBHe/smsoldhd.part10.rar
    https://www.bigfile.to/file/BFWbFpUNKfbc/smsoldhd.part11.rar

      Fecha y hora actual: Mar Ago 22, 2017 11:14 am