JAPAN SUFFERING

EL MEJOR FORO DE DESCARGAS DE MUSICA, JUEGOS Y VIDEOS.

JAPAN SUFFERING FORO DE CALIDAD Y CANTIDAD, SOMOS MAS QUE SOLO UN FORO...

    Texas Chainsaw (2013)(3D H-SBS 1080p)(Ing-Lat)

    Comparte

    pomposos
    JS Guest
    JS Guest

    Mensajes : 5619
    Reputación : 0
    Fecha de inscripción : 29/10/2013

    Texas Chainsaw (2013)(3D H-SBS 1080p)(Ing-Lat)

    Mensaje por pomposos el Lun Mar 06, 2017 12:32 pm




    TITULO ORIGINAL: Texas Chainsaw 3D (Leatherface 3D)
    ANO: 2013
    DURACION: 92 min.
    PAIS: USA
    DIRECTOR: John Luessenhop
    GUION: Adam Marcus, Debra Sullivan, Kirsten Elms, Stephen Susco (Personajes: Tobe Hooper, Kim Henkel)
    REPARTO: Alexandra Daddario, Trey Songz, Tania Raymonde, Keram Malicki-Sanchez, Shaun Sipos, Thom Barry, Paul Rae, Bill Moseley, Dan Yeager, Richard Riehle, John Dugan, Gunnar Hansen, Marilyn Burns, Tobe Hooper
    PRODUCTORA: Nu Image / Millennium
    GENERO: Terror | Secuela. Slasher. 3-D
    Secuela del film de Tobe Hooper (1974). El pueblo de Newt (Texas) se vengo' de la familia Sawyer por haber ocultado los asesinatos cometidos por Jeb Sawyer, el maniaco de la motosierra, tambien conocido como "Cara de cuero". Cuando la gente del pueblo, dirigida por Burt Hartman, quemo' su granja, se dio por supuesto que toda la familia habia muerto, pero el bebe' de los Sawyer sobrevivio'. Gavin y Arlene, dos de los vigilantes pueblerinos, se la llevaron en secreto y la criaron como si fuera su hija con el nombre de Heather. A los veinte anos, cuando descubrio' que habia sido adoptada, un abogado la localizo' para comunicarle que su abuela la habia nombrado heredera de sus bienes.

    Código:

    General
    Format                                  : Matroska
    Format version                          : Version 2
    File size                                : 8.79 GiB
    Duration                                : 1h 31mn
    Overall bit rate                        : 13.7 Mbps
    Encoded date                            : UTC 2013-05-02 10:08:09
    Writing application                      : mkvmerge v5.7.0 ('The Whirlwind') built on Jul  8 2012 20:08:51
    Writing library                          : libebml v1.2.3 + libmatroska v1.3.0
    Attachment                              : Yes
    Video
    ID                                      : 1
    Format                                  : AVC
    Format/Info                              : Advanced Video Codec
    Format profile                          : High@L4.1
    Format settings, CABAC                  : Yes
    Format settings, ReFrames                : 2 frames
    Codec ID                                : V_MPEG4/ISO/AVC
    Duration                                : 1h 31mn
    Bit rate                                : 10.6 Mbps
    Width                                    : 1 920 pixels
    Height                                  : 1 080 pixels
    Display aspect ratio                    : 16:9
    Frame rate mode                          : Constant
    Frame rate                              : 23.976 fps
    Color space                              : YUV
    Chroma subsampling                      : 4:2:0
    Bit depth                                : 8 bits
    Scan type                                : Progressive
    Bits/(Pixel*Frame)                      : 0.214
    Stream size                              : 6.82 GiB (78%)
    Writing library                          : x264 core
    Language                                : English
    Default                                  : Yes
    Forced                                  : No
    Color primaries                          : BT.709
    Transfer characteristics                : BT.709
    Matrix coefficients                      : BT.709
    Audio #1
    ID                                      : 2
    Format                                  : AC-3
    Format/Info                              : Audio Coding 3
    Mode extension                          : CM (complete main)
    Format settings, Endianness              : Big
    Codec ID                                : A_AC3
    Duration                                : 1h 31mn
    Bit rate mode                            : Constant
    Bit rate                                : 640 Kbps
    Channel(s)                              : 6 channels
    Channel positions                        : Front: L C R, Side: L R, LFE
    Sampling rate                            : 48.0 KHz
    Bit depth                                : 16 bits
    Compression mode                        : Lossy
    Stream size                              : 421 MiB (5%)
    Title                                    : AC3 5.1
    Language                                : Spanish
    Default                                  : Yes
    Forced                                  : No
    Audio #2
    ID                                      : 3
    Format                                  : AC-3
    Format/Info                              : Audio Coding 3
    Mode extension                          : CM (complete main)
    Format settings, Endianness              : Big
    Codec ID                                : A_AC3
    Duration                                : 1h 31mn
    Bit rate mode                            : Constant
    Bit rate                                : 640 Kbps
    Channel(s)                              : 6 channels
    Channel positions                        : Front: L C R, Side: L R, LFE
    Sampling rate                            : 48.0 KHz
    Bit depth                                : 16 bits
    Compression mode                        : Lossy
    Stream size                              : 421 MiB (5%)
    Title                                    : AC3 5.1
    Language                                : English
    Default                                  : No
    Forced                                  : No
    Audio #3
    ID                                      : 4
    Format                                  : DTS
    Format/Info                              : Digital Theater Systems
    Mode                                    : 16
    Format settings, Endianness              : Big
    Codec ID                                : A_DTS
    Duration                                : 1h 31mn
    Bit rate mode                            : Constant
    Bit rate                                : 1 509 Kbps
    Channel(s)                              : 6 channels
    Channel positions                        : Front: L C R, Side: L R, LFE
    Sampling rate                            : 48.0 KHz
    Bit depth                                : 24 bits
    Compression mode                        : Lossy
    Stream size                              : 993 MiB (11%)
    Title                                    : DTS 5.1
    Language                                : English
    Default                                  : No
    Forced                                  : No
    Text
    ID                                      : 5
    Format                                  : UTF-8
    Codec ID                                : S_TEXT/UTF8
    Codec ID/Info                            : UTF-8 Plain Text
    Language                                : Spanish
    Default                                  : No
    Forced                                  : No









    Código:

    https://www.bigfile.to/file/YwWmkbxhPVZM/tachi3dhd.part01.rar
    https://www.bigfile.to/file/M6Z9hVtMQDy4/tachi3dhd.part02.rar
    https://www.bigfile.to/file/xXz28Y2qDbyC/tachi3dhd.part03.rar
    https://www.bigfile.to/file/fvvGeNaAmxWr/tachi3dhd.part04.rar
    https://www.bigfile.to/file/yg3BpSCuAR8f/tachi3dhd.part05.rar
    https://www.bigfile.to/file/Cgx5RmfHzYXb/tachi3dhd.part06.rar
    https://www.bigfile.to/file/gTjN74Ym6YNw/tachi3dhd.part07.rar
    https://www.bigfile.to/file/swKAYSRWP7zX/tachi3dhd.part08.rar
    https://www.bigfile.to/file/5nru2X7YkyHH/tachi3dhd.part09.rar
    https://www.bigfile.to/file/vfjUNJ9VzmPu/tachi3dhd.part10.rar
    https://www.bigfile.to/file/wcf3HVuFxmuP/tachi3dhd.part11.rar
    https://www.bigfile.to/file/H26mrbmYn6DE/tachi3dhd.part12.rar
    https://www.bigfile.to/file/PpGNNUhac7yn/tachi3dhd.part13.rar
    https://www.bigfile.to/file/pg7VsFkRTCkz/tachi3dhd.part14.rar
    https://www.bigfile.to/file/spVDkqY4cJFK/tachi3dhd.part15.rar
    https://www.bigfile.to/file/XN4VeJkVcFEv/tachi3dhd.part16.rar
    https://www.bigfile.to/file/CYeH63WR6cwv/tachi3dhd.part17.rar
    https://www.bigfile.to/file/M5YDMjwQcKRU/tachi3dhd.part18.rar
    https://www.bigfile.to/file/bFNPzaqGhWnP/tachi3dhd.part19.rar
    https://www.bigfile.to/file/hpGvBFahrves/tachi3dhd.part20.rar
    https://www.bigfile.to/file/KCJqjj3xdjem/tachi3dhd.part21.rar
    https://www.bigfile.to/file/p4CGVfhs8a6m/tachi3dhd.part22.rar
    https://www.bigfile.to/file/hr38WPTdZ5zY/tachi3dhd.part23.rar
    https://www.bigfile.to/file/HShHjJt5rWSY/tachi3dhd.part24.rar
    https://www.bigfile.to/file/ZKJqx7xQBxF5/tachi3dhd.part25.rar
    https://www.bigfile.to/file/gGkbAtZr87bX/tachi3dhd.part26.rar
    https://www.bigfile.to/file/x6XpVAeD42kz/tachi3dhd.part27.rar
    https://www.bigfile.to/file/jGtF9gZmna2Z/tachi3dhd.part28.rar
    https://www.bigfile.to/file/psw5V3eUkgvf/tachi3dhd.part29.rar
    https://www.bigfile.to/file/eVZGKVmNvVvn/tachi3dhd.part30.rar
    https://www.bigfile.to/file/mv5WG4sGWz6v/tachi3dhd.part31.rar
    https://www.bigfile.to/file/bsy7byGzt5wG/tachi3dhd.part32.rar
    https://www.bigfile.to/file/rCWCKDdU328g/tachi3dhd.part33.rar
    https://www.bigfile.to/file/TFUv7CSSRmax/tachi3dhd.part34.rar
    https://www.bigfile.to/file/ecDR5wSXQZ9E/tachi3dhd.part35.rar
    https://www.bigfile.to/file/ANJddGjWfcTG/tachi3dhd.part36.rar

      Fecha y hora actual: Mar Oct 17, 2017 4:48 pm