JAPAN SUFFERING

EL MEJOR FORO DE DESCARGAS DE MUSICA, JUEGOS Y VIDEOS.

JAPAN SUFFERING FORO DE CALIDAD Y CANTIDAD, SOMOS MAS QUE SOLO UN FORO...

    The Chronicles of Riddick (2004)(FullHD 1080)(Ing-Lat)

    Comparte

    pomposos
    JS Guest
    JS Guest

    Mensajes : 5632
    Reputación : 0
    Fecha de inscripción : 29/10/2013

    The Chronicles of Riddick (2004)(FullHD 1080)(Ing-Lat)

    Mensaje por pomposos el Lun Mar 06, 2017 12:57 pm



    Código:
    http://www.imdb.com/title/tt0296572/

    Titulo original The Chronicles of Riddick
    Ano 2004
    Pais Estados Unidos
    Director David Twohy
    Guion David Twohy (Personajes: Jim Wheat & Ken Wheat)
    Musica Graeme Revell
    Fotografia Hugh Johnson
    Reparto Vin Diesel,Thandie Newton,Judi Dench,Karl Urban,Colm Feore,Linus Roache,Keith David,Yorick van Wageningen,Alexa Davalos
    Productora Universal Pictures
    Genero Ciencia ficcion. Accion | Extraterrestres. Secuela
    Sinopsis Riddick se ha pasado los ultimos cinco anos vagando por los mundos olvidados de la galaxia, evitando a los mercenarios que buscan su cabeza. Ahora, el fugitivo se encuentra en el planeta Helion, hogar de una sociedad progresista y multicultural que ha sido invadida por Lord Marshal, un despota que utiliza a los humanos a merced de su ejercito de guerreros conocidos como Necromonge

    Código:

    General
    Complete name : The chronicles of Riddick (2004) 1080p FULL Dual.mkv
    Format : Matroska
    Format version : Version 4 / Version 2
    File size : 8.95 GiB
    Duration : 2h 14mn
    Overall bit rate : 9 551 Kbps
    Movie name : The chronicles of Riddick [2004][1080p FULL Dual]
    Encoded date : UTC 2015-03-12 14:32:47
    Writing application : mkvmerge v7.6.0 (Garden of Dreams) 64bit
    Writing library : libebml v1.3.1 + libmatroska v1.4.2
    DURATION : 00:00:25.100000000
    NUMBER_OF_FRAMES : 1
    NUMBER_OF_BYTES : 104
    _STATISTICS_WRITING_APP : mkvmerge v7.6.0 (Garden of Dreams) 64bit
    _STATISTICS_WRITING_DATE_UT : 2015-03-12 14:32:47
    _STATISTICS_TAGS : BPS DURATION NUMBER_OF_FRAMES NUMBER_OF_BYTES
    Video
    ID : 1
    Format : AVC
    Format/Info : Advanced Video Codec
    Format profile : High@L4.0
    Format settings, CABAC : Yes
    Format settings, ReFrames : 4 frames
    Codec ID : V_MPEG4/ISO/AVC
    Duration : 2h 14mn
    Bit rate : 8 081 Kbps
    Nominal bit rate : 8 500 Kbps
    Width : 1 920 pixels
    Height : 1 080 pixels
    Display aspect ratio : 16:9
    Frame rate mode : Constant
    Frame rate : 23.976 fps
    Color space : YUV
    Chroma subsampling : 4:2:0
    Bit depth : 8 bits
    Scan type : Progressive
    Bits/(Pixel*Frame) : 0.163
    Stream size : 7.57 GiB (85%)
    Writing library : x264 core 142 r2479 dd79a61
    Default : Yes
    Forced : No
    Color primaries : BT.709
    Transfer characteristics : BT.709
    Matrix coefficients : BT.709
    Color range : Limited
    DURATION : 02:14:06.039000000
    NUMBER_OF_FRAMES : 192912
    NUMBER_OF_BYTES : 8303830373
    _STATISTICS_WRITING_APP : mkvmerge v7.6.0 (Garden of Dreams) 64bit
    _STATISTICS_WRITING_DATE_UT : 2015-03-12 14:32:47
    _STATISTICS_TAGS : BPS DURATION NUMBER_OF_FRAMES NUMBER_OF_BYTES
    Audio #1
    ID : 2
    Format : AC-3
    Format/Info : Audio Coding 3
    Mode extension : CM (complete main)
    Format settings, Endianness : Big
    Codec ID : A_AC3
    Duration : 2h 14mn
    Bit rate mode : Constant
    Bit rate : 640 Kbps
    Channel(s) : 6 channels
    Channel positions : Front: L C R, Side: L R, LFE
    Sampling rate : 48.0 KHz
    Bit depth : 16 bits
    Compression mode : Lossy
    Delay relative to video : -5ms
    Stream size : 614 MiB (7%)
    Title : spanish
    Default : Yes
    Forced : No
    DURATION : 02:14:05.984000000
    NUMBER_OF_FRAMES : 251438
    NUMBER_OF_BYTES : 643681280
    _STATISTICS_WRITING_APP : mkvmerge v7.6.0 (Garden of Dreams) 64bit
    _STATISTICS_WRITING_DATE_UT : 2015-03-12 14:32:47
    _STATISTICS_TAGS : BPS DURATION NUMBER_OF_FRAMES NUMBER_OF_BYTES
    Audio #2
    ID : 3
    Format : AC-3
    Format/Info : Audio Coding 3
    Mode extension : CM (complete main)
    Format settings, Endianness : Big
    Codec ID : A_AC3
    Duration : 2h 14mn
    Bit rate mode : Constant
    Bit rate : 640 Kbps
    Channel(s) : 6 channels
    Channel positions : Front: L C R, Side: L R, LFE
    Sampling rate : 48.0 KHz
    Bit depth : 16 bits
    Compression mode : Lossy
    Delay relative to video : -5ms
    Stream size : 614 MiB (7%)
    Title : english
    Default : No
    Forced : No
    DURATION : 02:14:05.984000000
    NUMBER_OF_FRAMES : 251438
    NUMBER_OF_BYTES : 643681280
    _STATISTICS_WRITING_APP : mkvmerge v7.6.0 (Garden of Dreams) 64bit
    _STATISTICS_WRITING_DATE_UT : 2015-03-12 14:32:47
    _STATISTICS_TAGS : BPS DURATION NUMBER_OF_FRAMES NUMBER_OF_BYTES
    Text #1
    ID : 4
    Format : UTF-8
    Codec ID : S_TEXT/UTF8
    Codec ID/Info : UTF-8 Plain Text
    Default : Yes
    Forced : No
    DURATION : 02:02:43.648000000
    NUMBER_OF_FRAMES : 1851
    NUMBER_OF_BYTES : 5405152
    _STATISTICS_WRITING_APP : mkvmerge v7.6.0 (Garden of Dreams) 64bit
    _STATISTICS_WRITING_DATE_UT : 2015-03-12 14:32:47
    _STATISTICS_TAGS : BPS DURATION NUMBER_OF_FRAMES NUMBER_OF_BYTES
    Text #2
    ID : 5
    Format : PGS
    Muxing mode : zlib
    Codec ID : S_HDMV/PGS
    Codec ID/Info : The same subtitle format used on BDs/HD-DVDs
    Title : spanish
    Default : No
    Forced : No
    DURATION : 02:02:43.731000000
    NUMBER_OF_FRAMES : 2061
    NUMBER_OF_BYTES : 6657048
    _STATISTICS_WRITING_APP : mkvmerge v7.6.0 (Garden of Dreams) 64bit
    _STATISTICS_WRITING_DATE_UT : 2015-03-12 14:32:47
    _STATISTICS_TAGS : BPS DURATION NUMBER_OF_FRAMES NUMBER_OF_BYTES
    Text #3
    ID : 6
    Format : PGS
    Muxing mode : zlib
    Codec ID : S_HDMV/PGS
    Codec ID/Info : The same subtitle format used on BDs/HD-DVDs
    Title : english
    Default : No
    Forced : No









    Código:

    https://www.bigfile.to/file/xRJcAraCwCkk/tcridhdd.part01.rar
    https://www.bigfile.to/file/VGjVkPqetPXP/tcridhdd.part02.rar
    https://www.bigfile.to/file/9yxj8xrf6QVP/tcridhdd.part03.rar
    https://www.bigfile.to/file/mYZ5jEpvc7b8/tcridhdd.part04.rar
    https://www.bigfile.to/file/gc68sMzStfNf/tcridhdd.part05.rar
    https://www.bigfile.to/file/aDyKudud4U3n/tcridhdd.part06.rar
    https://www.bigfile.to/file/nDxAPgmTstm8/tcridhdd.part07.rar
    https://www.bigfile.to/file/XDyVCfVs8cpq/tcridhdd.part08.rar
    https://www.bigfile.to/file/krQPjQ9MxVsh/tcridhdd.part09.rar
    https://www.bigfile.to/file/re9wxJVtfVVP/tcridhdd.part10.rar
    https://www.bigfile.to/file/RdXsknzZRUgh/tcridhdd.part11.rar
    https://www.bigfile.to/file/83aP4rQ4TcKT/tcridhdd.part12.rar
    https://www.bigfile.to/file/8bWsXu2Bz5Be/tcridhdd.part13.rar
    https://www.bigfile.to/file/S2Egck5RUv3Z/tcridhdd.part14.rar
    https://www.bigfile.to/file/J89heV6PMPWT/tcridhdd.part15.rar
    https://www.bigfile.to/file/U9pfByQGVEZt/tcridhdd.part16.rar
    https://www.bigfile.to/file/cgnjCMhUGMar/tcridhdd.part17.rar
    https://www.bigfile.to/file/rewAPGxnuudM/tcridhdd.part18.rar
    https://www.bigfile.to/file/CVmuK6kJATvg/tcridhdd.part19.rar
    https://www.bigfile.to/file/r4QXXpAdbEHB/tcridhdd.part20.rar
    https://www.bigfile.to/file/hFm6ebv8Tu2H/tcridhdd.part21.rar
    https://www.bigfile.to/file/bVVWm57jRa9g/tcridhdd.part22.rar
    https://www.bigfile.to/file/2Dy5Zg5na9xn/tcridhdd.part23.rar
    https://www.bigfile.to/file/cWqCAQRA9sCb/tcridhdd.part24.rar
    https://www.bigfile.to/file/bFa5hW98HwcZ/tcridhdd.part25.rar
    https://www.bigfile.to/file/VxnADwXd28FV/tcridhdd.part26.rar
    https://www.bigfile.to/file/bhre4TamDXFz/tcridhdd.part27.rar
    https://www.bigfile.to/file/ZSRJzJpHuhWc/tcridhdd.part28.rar
    https://www.bigfile.to/file/kZ6DZSj4GH5s/tcridhdd.part29.rar
    https://www.bigfile.to/file/BARC75CFK75m/tcridhdd.part30.rar
    https://www.bigfile.to/file/H3JqsPxvpD4V/tcridhdd.part31.rar
    https://www.bigfile.to/file/my56GVNRbnPP/tcridhdd.part32.rar
    https://www.bigfile.to/file/z77CjUmXbyRu/tcridhdd.part33.rar
    https://www.bigfile.to/file/fhZVHd7un4GP/tcridhdd.part34.rar
    https://www.bigfile.to/file/qGr3trKxcSzx/tcridhdd.part35.rar
    https://www.bigfile.to/file/NZcXHWxGjWA7/tcridhdd.part36.rar
    https://www.bigfile.to/file/RzTWFChTn62h/tcridhdd.part37.rar

      Fecha y hora actual: Vie Oct 20, 2017 5:19 am