JAPAN SUFFERING

EL MEJOR FORO DE DESCARGAS DE MUSICA, JUEGOS Y VIDEOS.

JAPAN SUFFERING FORO DE CALIDAD Y CANTIDAD, SOMOS MAS QUE SOLO UN FORO...

    The Smurfs 2 (2013)(3D H-SBS 1080p)(Ing-Lat)

    Comparte

    pomposos
    JS Guest
    JS Guest

    Mensajes : 5972
    Reputación : 0
    Fecha de inscripción : 29/10/2013

    The Smurfs 2 (2013)(3D H-SBS 1080p)(Ing-Lat)

    Mensaje por pomposos el Lun Mar 06, 2017 1:54 pm




    TITULO ORIGINAL: The Smurfs 2
    ANO: 2013
    DURACION: 105 min.
    PAIS: USA
    DIRECTOR: Raja Gosnell
    GUION: Karey Kirkpatrick, David Ronn, Jay Scherick, J. David Stem, David N. Weiss
    REPARTO: Animation, Neil Patrick Harris, Jayma Mays, Hank Azaria, Brendan Gleeson
    PRODUCTORA: Kerner Entertainment Company / Columbia Pictures / Sony Pictures Animation
    GENERO: Animacion. Comedia. Infantil | Comic. Cine familiar. 3-D. Secuela
    SINOPSIS: El malvado brujo Gargamel crea una pareja de criaturas revoltosas, una copia de los pitufos, llamados los Malotes, y que espera le permitan aprovecharse de su poderosa y magica esencia. Pero cuando descubre que solo un autentico Pitufo le puede dar lo que quiere -y que solamente un secreto que conoce Pitufina puede transformar a los Malotes en verdaderos pitufos- Gargamel secuestra a Pitufina y la lleva a Paris. Por lo que esta' en manos de Papa' Pitufo, Torpe, Grunon y Vanidoso regresar a nuestro mundo, y reunirse con sus amigos humanos Patrick y Grace Winslow, ¡y rescatarla!

    Código:

    General
    Format                                  : Matroska
    Format version                          : Version 2
    File size                                : 10.3 GiB
    Duration                                : 1h 44mn
    Overall bit rate                        : 14.1 Mbps
    Encoded date                            : UTC 2013-11-16 21:54:15
    Writing application                      : mkvmerge v5.7.0 ('The Whirlwind') built on Jul  8 2012 20:08:51
    Writing library                          : libebml v1.2.3 + libmatroska v1.3.0
    Video
    ID                                      : 1
    Format                                  : AVC
    Format/Info                              : Advanced Video Codec
    Format profile                          : High@L4.1
    Format settings, CABAC                  : Yes
    Format settings, ReFrames                : 2 frames
    Codec ID                                : V_MPEG4/ISO/AVC
    Duration                                : 1h 44mn
    Bit rate                                : 11.2 Mbps
    Width                                    : 1 920 pixels
    Height                                  : 1 080 pixels
    Display aspect ratio                    : 16:9
    Frame rate mode                          : Constant
    Frame rate                              : 23.976 fps
    Color space                              : YUV
    Chroma subsampling                      : 4:2:0
    Bit depth                                : 8 bits
    Scan type                                : Progressive
    Bits/(Pixel*Frame)                      : 0.225
    Stream size                              : 8.21 GiB (80%)
    Writing library                          : x264 core
    Language                                : English
    Default                                  : Yes
    Forced                                  : No
    Color primaries                          : BT.709
    Transfer characteristics                : BT.709
    Matrix coefficients                      : BT.709
    Audio #1
    ID                                      : 2
    Format                                  : AC-3
    Format/Info                              : Audio Coding 3
    Mode extension                          : CM (complete main)
    Format settings, Endianness              : Big
    Codec ID                                : A_AC3
    Duration                                : 1h 44mn
    Bit rate mode                            : Constant
    Bit rate                                : 448 Kbps
    Channel(s)                              : 6 channels
    Channel positions                        : Front: L C R, Side: L R, LFE
    Sampling rate                            : 48.0 KHz
    Bit depth                                : 16 bits
    Compression mode                        : Lossy
    Stream size                              : 336 MiB (3%)
    Title                                    : AC3
    Language                                : Spanish
    Default                                  : Yes
    Forced                                  : No
    Audio #2
    ID                                      : 3
    Format                                  : AC-3
    Format/Info                              : Audio Coding 3
    Mode extension                          : CM (complete main)
    Format settings, Endianness              : Big
    Codec ID                                : A_AC3
    Duration                                : 1h 44mn
    Bit rate mode                            : Constant
    Bit rate                                : 640 Kbps
    Channel(s)                              : 6 channels
    Channel positions                        : Front: L C R, Side: L R, LFE
    Sampling rate                            : 48.0 KHz
    Bit depth                                : 16 bits
    Compression mode                        : Lossy
    Stream size                              : 480 MiB (5%)
    Title                                    : AC3
    Language                                : English
    Default                                  : No
    Forced                                  : No
    Audio #3
    ID                                      : 4
    Format                                  : DTS
    Format/Info                              : Digital Theater Systems
    Mode                                    : 16
    Format settings, Endianness              : Big
    Codec ID                                : A_DTS
    Duration                                : 1h 44mn
    Bit rate mode                            : Constant
    Bit rate                                : 1 509 Kbps
    Channel(s)                              : 6 channels
    Channel positions                        : Front: L C R, Side: L R, LFE
    Sampling rate                            : 48.0 KHz
    Bit depth                                : 24 bits
    Compression mode                        : Lossy
    Stream size                              : 1.11 GiB (11%)
    Title                                    : DTS
    Language                                : English
    Default                                  : No
    Forced                                  : No
    Text
    ID                                      : 5
    Format                                  : VobSub
    Muxing mode                              : zlib
    Codec ID                                : S_VOBSUB
    Codec ID/Info                            : The same subtitle format used on DVDs
    Title                                    : 3D
    Language                                : Spanish
    Default                                  : No
    Forced                                  : No









    Código:

    https://www.bigfile.to/file/tWktZTtGH3Rc/thsmu23dh.part01.rar
    https://www.bigfile.to/file/6P8QUZuKRZ5b/thsmu23dh.part02.rar
    https://www.bigfile.to/file/XCvc2E39Y45Z/thsmu23dh.part03.rar
    https://www.bigfile.to/file/7AHDwcfJdsXG/thsmu23dh.part04.rar
    https://www.bigfile.to/file/hwpqqmXw8fQQ/thsmu23dh.part05.rar
    https://www.bigfile.to/file/VyTApGKfqDVC/thsmu23dh.part06.rar
    https://www.bigfile.to/file/wfq86QHtcAH5/thsmu23dh.part07.rar
    https://www.bigfile.to/file/4rHnSU85hTYf/thsmu23dh.part08.rar
    https://www.bigfile.to/file/jG93QnTDfPwv/thsmu23dh.part09.rar
    https://www.bigfile.to/file/YwzyX2ZTSmYs/thsmu23dh.part10.rar
    https://www.bigfile.to/file/6uuMs3jtPXuk/thsmu23dh.part11.rar
    https://www.bigfile.to/file/t87qq7hDQDP6/thsmu23dh.part12.rar
    https://www.bigfile.to/file/8Ehwasud54Wc/thsmu23dh.part13.rar
    https://www.bigfile.to/file/BTy2f4cu3xzh/thsmu23dh.part14.rar
    https://www.bigfile.to/file/B3u3KWmNbJmY/thsmu23dh.part15.rar
    https://www.bigfile.to/file/S6b3mSfT5cn7/thsmu23dh.part16.rar
    https://www.bigfile.to/file/hXUrbuz6re5E/thsmu23dh.part17.rar
    https://www.bigfile.to/file/G7Uaf7KTMy7k/thsmu23dh.part18.rar
    https://www.bigfile.to/file/WZ3aY32MCtWs/thsmu23dh.part19.rar
    https://www.bigfile.to/file/mHqNwdSquauB/thsmu23dh.part20.rar
    https://www.bigfile.to/file/5Ek85Bd2WUfZ/thsmu23dh.part21.rar
    https://www.bigfile.to/file/bkNkgF3jaSEr/thsmu23dh.part22.rar
    https://www.bigfile.to/file/YH4dbU89NBNj/thsmu23dh.part23.rar
    https://www.bigfile.to/file/59xm2WvgsqyN/thsmu23dh.part24.rar
    https://www.bigfile.to/file/uSR3cTX7umjj/thsmu23dh.part25.rar
    https://www.bigfile.to/file/6QCMtKD5USVU/thsmu23dh.part26.rar
    https://www.bigfile.to/file/Xc8XZFsN4xq4/thsmu23dh.part27.rar
    https://www.bigfile.to/file/Q6wkE95JVS5F/thsmu23dh.part28.rar
    https://www.bigfile.to/file/Xv6npaYs5r3a/thsmu23dh.part29.rar
    https://www.bigfile.to/file/K5j3VJ3GC4a8/thsmu23dh.part30.rar
    https://www.bigfile.to/file/AyvkU9KXa5ZQ/thsmu23dh.part31.rar
    https://www.bigfile.to/file/2rDV8eWWqHbu/thsmu23dh.part32.rar
    https://www.bigfile.to/file/eZDG4kpYuqgV/thsmu23dh.part33.rar
    https://www.bigfile.to/file/HdEzxCfes8Un/thsmu23dh.part34.rar
    https://www.bigfile.to/file/JgqDpafbvHyu/thsmu23dh.part35.rar
    https://www.bigfile.to/file/WWYaU6qBcfq7/thsmu23dh.part36.rar
    https://www.bigfile.to/file/yS9mmvgrkSHF/thsmu23dh.part37.rar
    https://www.bigfile.to/file/MANPwWDecW59/thsmu23dh.part38.rar
    https://www.bigfile.to/file/j3U3zDKCjRWe/thsmu23dh.part39.rar
    https://www.bigfile.to/file/GVdbWNv4bkhp/thsmu23dh.part40.rar
    https://www.bigfile.to/file/QM9y8MspPPf7/thsmu23dh.part41.rar
    https://www.bigfile.to/file/FMQR4waWn6Ey/thsmu23dh.part42.rar

      Fecha y hora actual: Miér Dic 13, 2017 9:13 am