JAPAN SUFFERING

EL MEJOR FORO DE DESCARGAS DE MUSICA, JUEGOS Y VIDEOS.

JAPAN SUFFERING FORO DE CALIDAD Y CANTIDAD, SOMOS MAS QUE SOLO UN FORO...

    The Town (2010)(FullHD 1080p)(Ing-Lat)

    Comparte

    pomposos
    JS Guest
    JS Guest

    Mensajes : 4742
    Reputación : 0
    Fecha de inscripción : 29/10/2013

    The Town (2010)(FullHD 1080p)(Ing-Lat)

    Mensaje por pomposos el Lun Mar 06, 2017 2:02 pm




    Titulo original: The Town
    Ano: 2010
    Duracion: 154 min.
    Pais: Estados Unidos
    Director: Ben Affleck
    Reparto: Ben Affleck, Rebecca Hall, Jon Hamm, Jeremy Renner, Blake Lively, Slaine, Owen Burke, Titus Welliver, Pete Postlethwaite, Chris Cooper, Victor Garber
    Productora: Warner Bros. Pictures
    Genero: Thriller. Drama | Crimen. Robos & Atracos. Neo-noir
    Sinopsis: Mientras planifica su proximo golpe, Doug MacRay (Ben Affleck), un atracador de bancos de Boston, tiene que esforzarse por controlar sus sentimientos por Claire (Rebecca Hall), la directora de uno de los bancos que atraco'. Al mismo tiempo, intenta esquivar al agente del FBI (Jon Hamm) que le sigue los pasos.

    [center]
    Código:

    General
    Format : Matroska
    Format version : Version 4 / Version 2
    File size : 13.2 GiB
    Duration : 2 h 33 min
    Overall bit rate : 12.4 Mb/s
    Movie name : The Town [Extended] (2010) 1080p
    Encoded date : UTC 2016-12-28 19:29:35
    Writing application : mkvmerge v9.3.1 ('Mask Machine') 32bit
    Writing library : libebml v1.3.4 + libmatroska v1.4.5
    Video
    ID : 1
    Format : AVC
    Format/Info : Advanced Video Codec
    Format profile : High@L4.1
    Format settings, CABAC : Yes
    Format settings, ReFrames : 4 frames
    Codec ID : V_MPEG4/ISO/AVC
    Duration : 2 h 33 min
    Bit rate : 10 000 kb/s
    Width : 1 920 pixels
    Height : 800 pixels
    Display aspect ratio : 2.40:1
    Frame rate mode : Constant
    Frame rate : 23.976 (24000/1001) FPS
    Color space : YUV
    Chroma subsampling : 4:2:0
    Bit depth : 8 bits
    Scan type : Progressive
    Bits/(Pixel*Frame) : 0.272
    Stream size : 10.5 GiB (79%)
    Title : The Town [Extended] (2010) 1080p
    Language : English
    Default : Yes
    Forced : No
    Audio #1
    ID : 2
    Format : AC-3
    Format/Info : Audio Coding 3
    Mode extension : CM (complete main)
    Format settings, Endianness : Big
    Codec ID : A_AC3
    Duration : 2 h 33 min
    Bit rate mode : Constant
    Bit rate : 448 kb/s
    Channel(s) : 6 channels
    Channel positions : Front: L C R, Side: L R, LFE
    Sampling rate : 48.0 kHz
    Frame rate : 31.250 FPS (1536 spf)
    Bit depth : 16 bits
    Compression mode : Lossy
    Delay relative to video : -83 ms
    Stream size : 492 MiB (4%)
    Title : AC3 5.1 DVD
    Language : Spanish
    Default : Yes
    Forced : No
    Audio #2
    ID : 3
    Format : DTS
    Format/Info : Digital Theater Systems
    Mode : 16
    Format settings, Endianness : Big
    Codec ID : A_DTS
    Duration : 2 h 33 min
    Bit rate mode : Constant
    Bit rate : 1 509 kb/s
    Channel(s) : 6 channels
    Channel positions : Front: L C R, Side: L R, LFE
    Sampling rate : 48.0 kHz
    Frame rate : 93.750 FPS (512 spf)
    Bit depth : 16 bits
    Compression mode : Lossy
    Delay relative to video : -83 ms
    Stream size : 1.62 GiB (12%)
    Title : DTS
    Language : English
    Default : No
    Forced : No
    Audio #3
    ID : 4
    Format : AC-3
    Format/Info : Audio Coding 3
    Mode extension : CM (complete main)
    Format settings, Endianness : Big
    Codec ID : A_AC3
    Duration : 2 h 33 min
    Bit rate mode : Constant
    Bit rate : 640 kb/s
    Channel(s) : 6 channels
    Channel positions : Front: L C R, Side: L R, LFE
    Sampling rate : 48.0 kHz
    Frame rate : 31.250 FPS (1536 spf)
    Bit depth : 16 bits
    Compression mode : Lossy
    Delay relative to video : -83 ms
    Stream size : 703 MiB (5%)
    Title : AC3 5.1
    Language : English
    Default : No
    Forced : No
    Text
    ID : 5
    Format : UTF-8
    Codec ID : S_TEXT/UTF8
    Codec ID/Info : UTF-8 Plain Text
    Duration : 2 h 28 min
    Bit rate : 63 b/s
    Count of elements : 2087
    Stream size : 69.0 KiB (0%)
    Language : Spanish
    Default : No
    Forced : No









    Código:

    https://www.bigfile.to/file/ssgqYrEvX9yS/thronghd.part01.rar
    https://www.bigfile.to/file/RqBUBR7X9PRP/thronghd.part02.rar
    https://www.bigfile.to/file/NXS8E7hGWRFD/thronghd.part03.rar
    https://www.bigfile.to/file/G2gAdxKPXVbC/thronghd.part04.rar
    https://www.bigfile.to/file/aJXtjVhdMZzr/thronghd.part05.rar
    https://www.bigfile.to/file/cTyRJHTWqtkj/thronghd.part06.rar
    https://www.bigfile.to/file/3pFJfeWeTWC9/thronghd.part07.rar
    https://www.bigfile.to/file/tkWeyw9jZghs/thronghd.part08.rar
    https://www.bigfile.to/file/CTT6kACsnQwU/thronghd.part09.rar
    https://www.bigfile.to/file/twnq3Met9VM8/thronghd.part10.rar
    https://www.bigfile.to/file/CGeaj2UuFpPg/thronghd.part11.rar
    https://www.bigfile.to/file/buTGQV4Q7ywV/thronghd.part12.rar
    https://www.bigfile.to/file/Hej8MSCaWSak/thronghd.part13.rar
    https://www.bigfile.to/file/GcMegfECaWHK/thronghd.part14.rar
    https://www.bigfile.to/file/ZdP2Yz3XUdYB/thronghd.part15.rar
    https://www.bigfile.to/file/ZegCFwh7t8ZS/thronghd.part16.rar
    https://www.bigfile.to/file/J3SRnZ2VWB4A/thronghd.part17.rar
    https://www.bigfile.to/file/bSbtPkdgcMza/thronghd.part18.rar
    https://www.bigfile.to/file/xHPdBtuPZndb/thronghd.part19.rar
    https://www.bigfile.to/file/byAtYuscdDXR/thronghd.part20.rar
    https://www.bigfile.to/file/8SsCJ5zc9dAC/thronghd.part21.rar
    https://www.bigfile.to/file/FRnWBxssB3v9/thronghd.part22.rar
    https://www.bigfile.to/file/AM7Bye678EFA/thronghd.part23.rar
    https://www.bigfile.to/file/nHemZsRk7v9A/thronghd.part24.rar
    https://www.bigfile.to/file/By2npxz7aSMG/thronghd.part25.rar
    https://www.bigfile.to/file/HgrTq4cAAYTJ/thronghd.part26.rar
    https://www.bigfile.to/file/R67vNy5uEFbd/thronghd.part27.rar
    https://www.bigfile.to/file/mVMFznAfHdhb/thronghd.part28.rar
    https://www.bigfile.to/file/UFShMm7VQeTS/thronghd.part29.rar
    https://www.bigfile.to/file/23hD9Pptwpvf/thronghd.part30.rar
    https://www.bigfile.to/file/bpqSydfvHN4e/thronghd.part31.rar
    https://www.bigfile.to/file/kbn98n3JMstH/thronghd.part32.rar
    https://www.bigfile.to/file/EfYyawnw9M3h/thronghd.part33.rar
    https://www.bigfile.to/file/36U4GGfJWAJM/thronghd.part34.rar
    https://www.bigfile.to/file/E5xPXZxjNGhy/thronghd.part35.rar
    https://www.bigfile.to/file/QWsH6zyDPabH/thronghd.part36.rar
    https://www.bigfile.to/file/ZawZrvFDrMZ9/thronghd.part37.rar
    https://www.bigfile.to/file/Uzt4fSYYN3cz/thronghd.part38.rar
    https://www.bigfile.to/file/SZEPNzkz9TdF/thronghd.part39.rar
    https://www.bigfile.to/file/aJdQhCnz8uNr/thronghd.part40.rar
    https://www.bigfile.to/file/5tBNX2bKqDth/thronghd.part41.rar
    https://www.bigfile.to/file/qmtnwckS6jJm/thronghd.part42.rar
    https://www.bigfile.to/file/Nr5S9YPf4DRT/thronghd.part43.rar
    https://www.bigfile.to/file/57jQz22R2jnA/thronghd.part44.rar
    https://www.bigfile.to/file/VK2vhMjCB3Kn/thronghd.part45.rar
    https://www.bigfile.to/file/DpGp5fuvE7u8/thronghd.part46.rar
    https://www.bigfile.to/file/4QtXVj2Sctbr/thronghd.part47.rar
    https://www.bigfile.to/file/9pHCTXvfUn8d/thronghd.part48.rar
    https://www.bigfile.to/file/wcV9e5KJ23sx/thronghd.part49.rar
    https://www.bigfile.to/file/KkuJ4rkYQf46/thronghd.part50.rar
    https://www.bigfile.to/file/t2c8F2FBXAXJ/thronghd.part51.rar
    https://www.bigfile.to/file/WDwHKHbaPWka/thronghd.part52.rar
    https://www.bigfile.to/file/uRGyaQv27wHY/thronghd.part53.rar
    https://www.bigfile.to/file/p7khx4eNEyvj/thronghd.part54.rar

      Fecha y hora actual: Mar Ago 22, 2017 11:16 am