JAPAN SUFFERING

EL MEJOR FORO DE DESCARGAS DE MUSICA, JUEGOS Y VIDEOS.

JAPAN SUFFERING FORO DE CALIDAD Y CANTIDAD, SOMOS MAS QUE SOLO UN FORO...

    Warcraft (2016)(FullHD 720p)(Ing-Lat)

    Comparte

    pomposos
    JS Guest
    JS Guest

    Mensajes : 5632
    Reputación : 0
    Fecha de inscripción : 29/10/2013

    Warcraft (2016)(FullHD 720p)(Ing-Lat)

    Mensaje por pomposos el Lun Mar 06, 2017 2:35 pm




    Titulo original: Warcraft: The Beginning
    Ano: 2016
    Duracion: 123 min.
    Pais: Estados Unidos
    Director: Duncan Jones
    Reparto: Travis Fimmel, Paula Patton, Ben Foster, Dominic Cooper, Toby Kebbell, Ben Schnetzer, Robert Kazinsky, Clancy Brown, Daniel Wu, Ruth Negga, Anna Galvin, Callum Keith, Burkely Duffield, Ryan Robbins, Dean Redman, Glenn Ennis, Terry Notary, Elena Wurlitzer, Michael Adamthwaite, Anna Van Hooft, Callan Mulvey
    Productora: Universal Pictures / Legendary Pictures / Blizzard Entertainment
    Genero: Fantastico. Aventuras | Fantasia medieval. Cine epico. Videojuego
    Sinopsis: El pacifico reino de Azeroth esta' a punto de entrar en guerra para enfrentarse a unos terribles invasores: orcos guerreros que han dejado su destruido mundo para colonizar otro. Al abrirse un portal que conecta ambos mundos, un ejercito se enfrenta a la destruccion, y el otro, a la extincion. Dos heroes, uno en cada bando, estan a punto de chocar en un enfrentamiento que cambiara' el destino de su familia, su pueblo y su hogar. Asi' empieza una espectacular saga de poder y sacrificio donde se descubren las numerosas caras de la guerra y donde cada uno lucha por lo suyo. Adaptacion del popular videojuego homonimo.

    [center]
    Código:

    General
    Format : Matroska
    Format version : Version 4 / Version 2
    File size : 5.15 GiB
    Duration : 2h 3mn
    Overall bit rate : 5 985 Kbps
    Movie name : Warcraft (2016) 720p
    Encoded date : UTC 2016-09-21 23:19:56
    Writing application : mkvmerge v7.1.0 ('Good Love') 64bit built on Jul 27 2014 13:06:55
    Writing library : libebml v1.3.0 + libmatroska v1.4.1
    Video
    ID : 1
    Format : AVC
    Format/Info : Advanced Video Codec
    Format profile : High@L4.1
    Format settings, CABAC : Yes
    Format settings, ReFrames : 5 frames
    Codec ID : V_MPEG4/ISO/AVC
    Duration : 2h 3mn
    Bit rate : 4 586 Kbps
    Width : 1 280 pixels
    Height : 526 pixels
    Display aspect ratio : 2.40:1
    Original display aspect ratio : 2.40:1
    Frame rate mode : Constant
    Frame rate : 23.976 fps
    Color space : YUV
    Chroma subsampling : 4:2:0
    Bit depth : 8 bits
    Scan type : Progressive
    Bits/(Pixel*Frame) : 0.284
    Stream size : 3.94 GiB (77%)
    Title : Warcraft (2016) 720p
    Language : English
    Default : Yes
    Forced : No
    Audio #1
    ID : 2
    Format : AC-3
    Format/Info : Audio Coding 3
    Mode extension : CM (complete main)
    Format settings, Endianness : Big
    Codec ID : A_AC3
    Duration : 2h 3mn
    Bit rate mode : Constant
    Bit rate : 640 Kbps
    Channel(s) : 6 channels
    Channel positions : Front: L C R, Side: L R, LFE
    Sampling rate : 48.0 KHz
    Bit depth : 16 bits
    Compression mode : Lossy
    Stream size : 564 MiB (11%)
    Title : AC3 5.1 Bluray
    Language : Spanish
    Default : Yes
    Forced : No
    Audio #2
    ID : 3
    Format : AC-3
    Format/Info : Audio Coding 3
    Mode extension : CM (complete main)
    Format settings, Endianness : Big
    Codec ID : A_AC3
    Duration : 2h 3mn
    Bit rate mode : Constant
    Bit rate : 640 Kbps
    Channel(s) : 6 channels
    Channel positions : Front: L C R, Side: L R, LFE
    Sampling rate : 48.0 KHz
    Bit depth : 16 bits
    Compression mode : Lossy
    Stream size : 564 MiB (11%)
    Title : AC3 5.1
    Language : English
    Default : No
    Forced : No
    Text #1
    ID : 4
    Format : UTF-8
    Codec ID : S_TEXT/UTF8
    Codec ID/Info : UTF-8 Plain Text
    Language : Spanish
    Default : Yes
    Forced : No
    Text #2
    ID : 5
    Format : UTF-8
    Codec ID : S_TEXT/UTF8
    Codec ID/Info : UTF-8 Plain Text
    Language : Spanish
    Default : No
    Forced : No









    Código:

    https://www.bigfile.to/file/A4QvUPWxGN4P/wacrfghd.part01.rar
    https://www.bigfile.to/file/mYvRuV8zA88q/wacrfghd.part02.rar
    https://www.bigfile.to/file/q4UvNeC4rUj8/wacrfghd.part03.rar
    https://www.bigfile.to/file/semESufzkw72/wacrfghd.part04.rar
    https://www.bigfile.to/file/sCFqxrdWzCqp/wacrfghd.part05.rar
    https://www.bigfile.to/file/rAKCKbTDcQ8W/wacrfghd.part06.rar
    https://www.bigfile.to/file/vaR5xW736CRz/wacrfghd.part07.rar
    https://www.bigfile.to/file/qJgSyvjGBjkf/wacrfghd.part08.rar
    https://www.bigfile.to/file/bqb4U3ZXr2qQ/wacrfghd.part09.rar
    https://www.bigfile.to/file/RSr85y8RhpS7/wacrfghd.part10.rar
    https://www.bigfile.to/file/A76cCvNh5ku5/wacrfghd.part11.rar
    https://www.bigfile.to/file/ANN55n87CaUq/wacrfghd.part12.rar
    https://www.bigfile.to/file/Dt6snVdgpTe3/wacrfghd.part13.rar
    https://www.bigfile.to/file/aTeu69hA5S8a/wacrfghd.part14.rar
    https://www.bigfile.to/file/TvCgnMk8cQ6u/wacrfghd.part15.rar
    https://www.bigfile.to/file/my8BKfU9bHZa/wacrfghd.part16.rar
    https://www.bigfile.to/file/ZVxXFPpAqnVh/wacrfghd.part17.rar
    https://www.bigfile.to/file/EfnrXqqSjuwX/wacrfghd.part18.rar
    https://www.bigfile.to/file/ZAWbwWN4ArRZ/wacrfghd.part19.rar
    https://www.bigfile.to/file/BNMvDdDxGrs8/wacrfghd.part20.rar
    https://www.bigfile.to/file/PtsYparkdfpK/wacrfghd.part21.rar
    https://www.bigfile.to/file/QxYJhV5qrZdm/wacrfghd.part22.rar

      Fecha y hora actual: Vie Oct 20, 2017 5:19 am