JAPAN SUFFERING

EL MEJOR FORO DE DESCARGAS DE MUSICA, JUEGOS Y VIDEOS.

JAPAN SUFFERING FORO DE CALIDAD Y CANTIDAD, SOMOS MAS QUE SOLO UN FORO...

    Doctor Strange (2016)(FullHD 1080)(Ing-Lat)

    Comparte

    pomposos
    JS Guest
    JS Guest

    Mensajes : 5972
    Reputación : 0
    Fecha de inscripción : 29/10/2013

    Doctor Strange (2016)(FullHD 1080)(Ing-Lat)

    Mensaje por pomposos el Miér Mar 08, 2017 1:21 pm




    Titulo original: Doctor Strange
    Ano: 2016
    Duracion: 115 min.
    Pais: Estados Unidos
    Director: Scott Derrickson
    Reparto: Benedict Cumberbatch, Chiwetel Ejiofor, Rachel McAdams, Mads Mikkelsen, Tilda Swinton, Benjamin Bratt, Michael Stuhlbarg, Scott Adkins, Zara Phythian, Alaa Safi, Katrina Durden, Neve Gachev, Amy Landecker, Dante Briggins, Tony Paul West, Daniel Eghan, Annarie Boor, Jill Buchanan, Pezhmaan Alinia, Stan Lee
    Productora: Marvel Studios
    Genero: Fantastico. Accion. Comedia | Magia. Superheroes. Comic. Marvel Comics. 3-D
    Sinopsis: La vida del Dr. Stephen Strange cambia para siempre tras un accidente automovilistico que le deja muy malheridas sus manos. Cuando la medicina tradicional falla, se ve obligado a buscar esperanza y una cura en un lugar impensable: una comunidad aislada en Nepal llamada Kamar-Taj. Rapidamente descubre que este no es solo un centro de recuperacion, sino tambien la primera linea de una batalla en contra de fuerzas oscuras y ocultas empenadas en destruir nuestra realidad. En poco tiempo, Strange, armado con sus poderes magicos recientemente adquiridos, se ve obligado a elegir entre volver a su antigua vida de riqueza y prestigio o dejarlo todo, para defender el mundo como el mago mas poderoso del planeta. Adaptacion del comic creado por Stan Lee y Steve Ditko.
    Trailer
    [Tienes que estar registrado y conectado para ver este vínculo]

    Código:

    Format : Matroska
    Format version : Version 4 / Version 2
    File size : 8.68 GiB
    Duration : 1 h 54 min
    Overall bit rate : 10.8 Mb/s
    Movie name : Doctor Strange (2016) 1080p
    Encoded date : UTC 2017-02-15 22:40:40
    Writing application : mkvmerge v9.3.1 ('Mask Machine') 32bit
    Writing library : libebml v1.3.4 + libmatroska v1.4.5
    Video
    ID : 1
    Format : AVC
    Format/Info : Advanced Video Codec
    Format profile : High@L4.1
    Format settings, CABAC : Yes
    Format settings, ReFrames : 5 frames
    Codec ID : V_MPEG4/ISO/AVC
    Duration : 1 h 54 min
    Bit rate : 8 011 kb/s
    Width : 1 920 pixels
    Height : 808 pixels
    Display aspect ratio : 2.40:1
    Frame rate mode : Constant
    Frame rate : 23.976 (24000/1001) FPS
    Color space : YUV
    Chroma subsampling : 4:2:0
    Bit depth : 8 bits
    Scan type : Progressive
    Bits/(Pixel*Frame) : 0.215
    Stream size : 6.43 GiB (74%)
    Title : Doctor Strange (2016) 1080p
    Language : English
    Default : Yes
    Forced : No
    Audio #1
    ID : 2
    Format : AC-3
    Format/Info : Audio Coding 3
    Mode extension : CM (complete main)
    Format settings, Endianness : Big
    Codec ID : A_AC3
    Duration : 1 h 54 min
    Bit rate mode : Constant
    Bit rate : 640 kb/s
    Channel(s) : 6 channels
    Channel positions : Front: L C R, Side: L R, LFE
    Sampling rate : 48.0 kHz
    Frame rate : 31.250 FPS (1536 spf)
    Bit depth : 16 bits
    Compression mode : Lossy
    Stream size : 526 MiB (6%)
    Title : AC3 5.1 Bluray
    Language : Spanish
    Default : Yes
    Forced : No
    Audio #2
    ID : 3
    Format : DTS
    Format/Info : Digital Theater Systems
    Mode : 16
    Format settings, Endianness : Big
    Codec ID : A_DTS
    Duration : 1 h 54 min
    Bit rate mode : Constant
    Bit rate : 1 509 kb/s
    Channel(s) : 6 channels
    Channel positions : Front: L C R, Side: L R, LFE
    Sampling rate : 48.0 kHz
    Frame rate : 93.750 FPS (512 spf)
    Bit depth : 24 bits
    Compression mode : Lossy
    Stream size : 1.21 GiB (14%)
    Title : DTS
    Language : English
    Default : No
    Forced : No
    Audio #3
    ID : 4
    Format : AC-3
    Format/Info : Audio Coding 3
    Mode extension : CM (complete main)
    Format settings, Endianness : Big
    Codec ID : A_AC3
    Duration : 1 h 54 min
    Bit rate mode : Constant
    Bit rate : 640 kb/s
    Channel(s) : 6 channels
    Channel positions : Front: L C R, Side: L R, LFE
    Sampling rate : 48.0 kHz
    Frame rate : 31.250 FPS (1536 spf)
    Bit depth : 16 bits
    Compression mode : Lossy
    Stream size : 526 MiB (6%)
    Title : AC3 5.1
    Language : English
    Default : No
    Forced : No
    Text #1
    ID : 5
    Format : UTF-8
    Codec ID : S_TEXT/UTF8
    Codec ID/Info : UTF-8 Plain Text
    Duration : 1 h 33 min
    Bit rate : 0 b/s
    Count of elements : 3
    Stream size : 74.0 Bytes (0%)
    Title : Subtit
    Language : Spanish
    Default : Yes
    Forced : No
    Text #2
    ID : 6
    Format : UTF-8
    Codec ID : S_TEXT/UTF8
    Codec ID/Info : UTF-8 Plain Text
    Duration : 1 h 52 min
    Bit rate : 45 b/s
    Count of elements : 1268
    Stream size : 37.4 KiB (0%)
    Title : Subtit
    Language : Spanish
    Default : No
    Forced : No









    Código:

    https://www.bigfile.to/file/NmYqnjETSZan/datge1hd.part01.rar
    https://www.bigfile.to/file/AzMGAV3fn9M8/datge1hd.part02.rar
    https://www.bigfile.to/file/RbfHCgMtFxvm/datge1hd.part03.rar
    https://www.bigfile.to/file/aRX9g7NTjZQB/datge1hd.part04.rar
    https://www.bigfile.to/file/Q2QuRgZ5BShF/datge1hd.part05.rar
    https://www.bigfile.to/file/Q34564uN59ef/datge1hd.part06.rar
    https://www.bigfile.to/file/pcyTt74dUN7P/datge1hd.part07.rar
    https://www.bigfile.to/file/AT7AvRWdMFXP/datge1hd.part08.rar
    https://www.bigfile.to/file/An9TPpsvbt7n/datge1hd.part09.rar
    https://www.bigfile.to/file/p7NFrzbwjZHX/datge1hd.part10.rar
    https://www.bigfile.to/file/Nc6JwQ9y32yT/datge1hd.part11.rar
    https://www.bigfile.to/file/ybjdjDNe5Y6c/datge1hd.part12.rar
    https://www.bigfile.to/file/C7zmWabf2Wyb/datge1hd.part13.rar
    https://www.bigfile.to/file/5r8GffvEeNHQ/datge1hd.part14.rar
    https://www.bigfile.to/file/9d8F4JjbucA2/datge1hd.part15.rar
    https://www.bigfile.to/file/UEyKXYfGuqQr/datge1hd.part16.rar
    https://www.bigfile.to/file/vcYGNU8ZAs4T/datge1hd.part17.rar
    https://www.bigfile.to/file/3Y6urAHJPcJH/datge1hd.part18.rar
    https://www.bigfile.to/file/8ZbEBuY5sSap/datge1hd.part19.rar
    https://www.bigfile.to/file/x46UDbJ8MzV4/datge1hd.part20.rar
    https://www.bigfile.to/file/MDcME7uXHXMb/datge1hd.part21.rar
    https://www.bigfile.to/file/Cnw5XkFjn2bN/datge1hd.part22.rar
    https://www.bigfile.to/file/B4Nxxv4C3uDp/datge1hd.part23.rar
    https://www.bigfile.to/file/E42CfmtkMP6r/datge1hd.part24.rar
    https://www.bigfile.to/file/PjAmD5HwC42c/datge1hd.part25.rar
    https://www.bigfile.to/file/aqfp4nygG6nR/datge1hd.part26.rar
    https://www.bigfile.to/file/BE7nHhNFxUm8/datge1hd.part27.rar
    https://www.bigfile.to/file/7tuHHDxUQrZh/datge1hd.part28.rar
    https://www.bigfile.to/file/6E9V5yJartq5/datge1hd.part29.rar
    https://www.bigfile.to/file/7F2PQkdt38MP/datge1hd.part30.rar
    https://www.bigfile.to/file/DGZQkpwuCPyG/datge1hd.part31.rar
    https://www.bigfile.to/file/AXbepd8GqS4R/datge1hd.part32.rar
    https://www.bigfile.to/file/6gKXRPMn7rH4/datge1hd.part33.rar
    https://www.bigfile.to/file/VrRpZB8NQpBq/datge1hd.part34.rar
    https://www.bigfile.to/file/PrcJu6ZqwcCM/datge1hd.part35.rar
    https://www.bigfile.to/file/NtSWMSxdYumJ/datge1hd.part36.rar

      Fecha y hora actual: Miér Dic 13, 2017 5:00 pm