JAPAN SUFFERING

EL MEJOR FORO DE DESCARGAS DE MUSICA, JUEGOS Y VIDEOS.

JAPAN SUFFERING FORO DE CALIDAD Y CANTIDAD, SOMOS MAS QUE SOLO UN FORO...

    Passengers (2016)(FullHD 1080)(Ing-Lat)

    Comparte

    pomposos
    JS Guest
    JS Guest

    Mensajes : 4742
    Reputación : 0
    Fecha de inscripción : 29/10/2013

    Passengers (2016)(FullHD 1080)(Ing-Lat)

    Mensaje por pomposos el Vie Mar 10, 2017 10:28 pm




    Titulo original: Passengers
    Ano: 2016
    Duracion: 116 min.
    Pais: Estados Unidos
    Director: Morten Tyldum
    Reparto: Chris Pratt, Jennifer Lawrence, Michael Sheen, Laurence Fishburne, Andy Garcia, Julee Cerda, Kara Flowers
    Productora: Columbia Pictures / Lstar Capital / Village Roadshow Pictures / Original Film / Company Films / Start Motion Pictures
    Genero: Ciencia ficcion. Drama. Aventuras. Romance | Aventura espacial. 3-D
    Sinopsis: Una nave espacial, que viaja a un planeta lejano transportando a miles de personas, tiene una averia en una de las capsulas de hibernacion tras el impacto con un gran meteorito. Como resultado, un pasajero se despierta noventa anos antes del final del viaje.
    [Tienes que estar registrado y conectado para ver este vínculo]

    Código:

    Format : Matroska
    Format version : Version 4 / Version 2
    File size : 9.79 GiB
    Duration : 1 h 56 min
    Overall bit rate : 12.1 Mb/s
    Movie name : Passengers (2016) 1080p
    Encoded date : UTC 2017-02-28 23:20:48
    Writing application : mkvmerge v9.3.1 ('Mask Machine') 32bit
    Writing library : libebml v1.3.4 + libmatroska v1.4.
    Video
    ID : 1
    Format : AVC
    Format/Info : Advanced Video Codec
    Format profile : High@L4.1
    Format settings, CABAC : Yes
    Format settings, ReFrames : 5 frames
    Codec ID : V_MPEG4/ISO/AVC
    Duration : 1 h 56 min
    Bit rate : 9 267 kb/s
    Width : 1 920 pixels
    Height : 808 pixels
    Display aspect ratio : 2.40:1
    Frame rate mode : Constant
    Frame rate : 23.976 FPS
    Color space : YUV
    Chroma subsampling : 4:2:0
    Bit depth : 8 bits
    Scan type : Progressive
    Bits/(Pixel*Frame) : 0.249
    Stream size : 7.52 GiB (77%)
    Title : Passengers (2016) 1080p
    Language : English
    Default : Yes
    Forced : No
    Audio #1
    ID : 2
    Format : AC-3
    Format/Info : Audio Coding 3
    Mode extension : CM (complete main)
    Format settings, Endianness : Big
    Codec ID : A_AC3
    Duration : 1 h 56 min
    Bit rate mode : Constant
    Bit rate : 640 kb/s
    Channel(s) : 6 channels
    Channel positions : Front: L C R, Side: L R, LFE
    Sampling rate : 48.0 kHz
    Frame rate : 31.250 FPS (1536 spf)
    Bit depth : 16 bits
    Compression mode : Lossy
    Stream size : 532 MiB (5%)
    Title : AC3 5.1 Bluray
    Language : Spanish
    Default : Yes
    Forced : No
    Audio #2
    ID : 3
    Format : DTS
    Format/Info : Digital Theater Systems
    Mode : 16
    Format settings, Endianness : Big
    Codec ID : A_DTS
    Duration : 1 h 56 min
    Bit rate mode : Constant
    Bit rate : 1 509 kb/s
    Channel(s) : 6 channels
    Channel positions : Front: L C R, Side: L R, LFE
    Sampling rate : 48.0 kHz
    Frame rate : 93.750 FPS (512 spf)
    Bit depth : 24 bits
    Compression mode : Lossy
    Stream size : 1.22 GiB (13%)
    Title : DTS
    Language : English
    Default : No
    Forced : No
    Audio #3
    ID : 4
    Format : AC-3
    Format/Info : Audio Coding 3
    Mode extension : CM (complete main)
    Format settings, Endianness : Big
    Codec ID : A_AC3
    Duration : 1 h 56 min
    Bit rate mode : Constant
    Bit rate : 640 kb/s
    Channel(s) : 6 channels
    Channel positions : Front: L C R, Side: L R, LFE
    Sampling rate : 48.0 kHz
    Frame rate : 31.250 FPS (1536 spf)
    Bit depth : 16 bits
    Compression mode : Lossy
    Stream size : 532 MiB (5%)
    Title : AC3 5.1
    Language : English
    Default : No
    Forced : No
    Text #1
    ID : 5
    Format : UTF-8
    Codec ID : S_TEXT/UTF8
    Codec ID/Info : UTF-8 Plain Text
    Duration : 1 h 48 min
    Bit rate : 0 b/s
    Count of elements : 20
    Stream size : 506 Bytes (0%)
    Title : Subt
    Language : Spanish
    Default : Yes
    Forced : No
    Text #2
    ID : 6
    Format : UTF-8
    Codec ID : S_TEXT/UTF8
    Codec ID/Info : UTF-8 Plain Text
    Duration : 1 h 48 min
    Bit rate : 47 b/s
    Count of elements : 1187
    Stream size : 37.3 KiB (0%)
    Title : Subti
    Language : Spanish
    Default : No
    Forced : No









    Código:

    https://www.bigfile.to/file/HEa4FEYWMtyt/pase2j4hd.part01.rar
    https://www.bigfile.to/file/PNDhpezdEZdY/pase2j4hd.part02.rar
    https://www.bigfile.to/file/UZyhCKPzYnNE/pase2j4hd.part03.rar
    https://www.bigfile.to/file/xDkuF4mDPEp8/pase2j4hd.part04.rar
    https://www.bigfile.to/file/hxBqAHGP3hGY/pase2j4hd.part05.rar
    https://www.bigfile.to/file/8DJSUvfnjdCd/pase2j4hd.part06.rar
    https://www.bigfile.to/file/8B5FfkbXcqAW/pase2j4hd.part07.rar
    https://www.bigfile.to/file/DQEf9fcC5d9A/pase2j4hd.part08.rar
    https://www.bigfile.to/file/My79797XSugP/pase2j4hd.part09.rar
    https://www.bigfile.to/file/VGJcJbTugtGV/pase2j4hd.part10.rar
    https://www.bigfile.to/file/2Nrhpvn7mBNN/pase2j4hd.part11.rar
    https://www.bigfile.to/file/PcmxUv8ad2QA/pase2j4hd.part12.rar
    https://www.bigfile.to/file/2A3upcauxTcy/pase2j4hd.part13.rar
    https://www.bigfile.to/file/8NtD8pHaGFMe/pase2j4hd.part14.rar
    https://www.bigfile.to/file/rrDNzKB46zta/pase2j4hd.part15.rar
    https://www.bigfile.to/file/MhdxMPRw8xuP/pase2j4hd.part16.rar
    https://www.bigfile.to/file/XCC8HgW3bDT9/pase2j4hd.part17.rar
    https://www.bigfile.to/file/9Kf4Xxj4ag9M/pase2j4hd.part18.rar
    https://www.bigfile.to/file/5uebsAuC5TSb/pase2j4hd.part19.rar
    https://www.bigfile.to/file/9VZCb6nGaEcd/pase2j4hd.part20.rar
    https://www.bigfile.to/file/NYWCr4b4sTYX/pase2j4hd.part21.rar
    https://www.bigfile.to/file/G5vTVsrxnv7w/pase2j4hd.part22.rar
    https://www.bigfile.to/file/wdcBhxjbbVur/pase2j4hd.part23.rar
    https://www.bigfile.to/file/Rkpg2RCsH2CH/pase2j4hd.part24.rar
    https://www.bigfile.to/file/8ktn8qGJNbB4/pase2j4hd.part25.rar
    https://www.bigfile.to/file/KwBNNn6AfANG/pase2j4hd.part26.rar
    https://www.bigfile.to/file/SMya6hMgqv4d/pase2j4hd.part27.rar
    https://www.bigfile.to/file/6FJK4f62yY57/pase2j4hd.part28.rar
    https://www.bigfile.to/file/9kskKcnJGpxR/pase2j4hd.part29.rar
    https://www.bigfile.to/file/huvqQcMdTZsh/pase2j4hd.part30.rar
    https://www.bigfile.to/file/5PyysZ8nWQ27/pase2j4hd.part31.rar
    https://www.bigfile.to/file/6qSJTQMENB6m/pase2j4hd.part32.rar
    https://www.bigfile.to/file/HrWan3qaeqje/pase2j4hd.part33.rar
    https://www.bigfile.to/file/C8Nus2zznYCw/pase2j4hd.part34.rar
    https://www.bigfile.to/file/Mc2hwR6BuwNd/pase2j4hd.part35.rar
    https://www.bigfile.to/file/FAWNQgZJ9pFv/pase2j4hd.part36.rar
    https://www.bigfile.to/file/Sdhufqrgp7pF/pase2j4hd.part37.rar
    https://www.bigfile.to/file/h2FRVZExhffa/pase2j4hd.part38.rar
    https://www.bigfile.to/file/KqyBwsjrkZeb/pase2j4hd.part39.rar
    https://www.bigfile.to/file/au2pQZuFD8kM/pase2j4hd.part40.rar

      Fecha y hora actual: Mar Ago 22, 2017 11:12 am