JAPAN SUFFERING

EL MEJOR FORO DE DESCARGAS DE MUSICA, JUEGOS Y VIDEOS.

JAPAN SUFFERING FORO DE CALIDAD Y CANTIDAD, SOMOS MAS QUE SOLO UN FORO...

    Frozen (2013)(3D H-SBS 1080p)(ENG-SPA)

    Comparte

    pomposos
    JS Guest
    JS Guest

    Mensajes : 4728
    Reputación : 0
    Fecha de inscripción : 29/10/2013

    Frozen (2013)(3D H-SBS 1080p)(ENG-SPA)

    Mensaje por pomposos el Mar Abr 04, 2017 4:59 pm




    ORIGINAL TITLE: Frozen
    YEAR 2013
    DURATION: 108 min.
    COUNTRY: USA
    DIRECTOR: Chris Buck, Jennifer Lee
    Screenplay: Jennifer Lee (Novel: Hans Christian Andersen)
    CAST: Animation
    STUDIO: Walt Disney Animation Studios / Walt Disney Pictures
    GENDER: Animation. Fantastic. Musical. Adventure. Comedy. Children | Stories. 3-D
    [Tienes que estar registrado y conectado para ver este vínculo]
    Synopsis: When a prophecy condemns a kingdom to live an eternal winter, young Anna, the brash mountaineer Kristoff and the reindeer Sven embark on an epic journey in search of Elsa, sister of Anna and Queen of the Snow, to end the cold spell. Free adaptation of the story "The Queen of the Snows".
    Trailer
    [Tienes que estar registrado y conectado para ver este vínculo]

    Código:

    General
    Format  : Matroska
    Format version : Version 3 / Version 2
    File size  : 8.98 GiB
    Duration : 1h 42mn
    Overall bit rate: 12.6 Mbps
    Encoded date: UTC 2014-03-15 23:27:54
    Writing application: mkvmerge v5.7.0 (The Whirlwind) built on Jul  8 2012 20:08:51
    Writing library : libebml v1.2.3 + libmatroska v1.3.0
    Video
    ID: 1
    Format : AVC
    Format/Info : Advanced Video Codec
    Format profile : High@L4.1
    MultiView_Count : 2
    MultiView_Layout  : Side by Side (left eye first)
    Format settings, CABAC : Yes
    Format settings, ReFrames : 2 frames
    Format settings, GOP : M=3, N=24
    Muxing mode : Header stripping
    Codec ID: V_MPEG4/ISO/AVC
    Duration : 1h 42mn
    Bit rate: 9 532 Kbps
    Width : 1 920 pixels
    Height : 1 080 pixels
    Display aspect ratio : 16:9
    Frame rate mode: Constant
    Frame rate: 23.976 fps
    Color space : YUV
    Chroma subsampling : 4:2:0
    Bit depth: 8 bits
    Scan type Progressive
    Bits/(Pixel*Frame) : 0.192
    Stream size: 6.81 GiB (76%)
    Writing library : x264 core
    Language : English
    Default : Yes
    Forced  : No
    Color primaries: BT.709
    Transfer characteristics: BT.709
    Matrix coefficients : BT.709
    Audio #1
    ID: 2
    Format : AC-3
    Format/Info: Audio Coding 3
    Mode extension : CM (complete main)
    Format settings, Endianness: Big
    Muxing mode  : Header stripping
    Codec ID : A_AC3
    Duration : 1h 42mn
    Bit rate mode                            : Constant
    Bit rate                                : 640 Kbps
    Channel(s)                              : 6 channels
    Channel positions                        : Front: L C R, Side: L R, LFE
    Sampling rate                            : 48.0 KHz
    Bit depth                                : 16 bits
    Compression mode                        : Lossy
    Stream size                              : 468 MiB (5%)
    Title                                    : AC3
    Language                                : Spanish
    Default                                  : Yes
    Forced                                  : No
    Audio #2
    ID                                      : 3
    Format                                  : AC-3
    Format/Info                              : Audio Coding 3
    Mode extension                          : CM (complete main)
    Format settings, Endianness              : Big
    Muxing mode                              : Header stripping
    Codec ID                                : A_AC3
    Duration                                : 1h 42mn
    Bit rate mode                            : Constant
    Bit rate                                : 640 Kbps
    Channel(s)                              : 6 channels
    Channel positions                        : Front: L C R, Side: L R, LFE
    Sampling rate                            : 48.0 KHz
    Bit depth                                : 16 bits
    Compression mode                        : Lossy
    Stream size                              : 468 MiB (5%)
    Title                                    : AC3
    Language                                : English
    Default                                  : No
    Forced                                  : No
    Audio #3
    ID                                      : 4
    Format                                  : DTS
    Format/Info                              : Digital Theater Systems
    Mode                                    : 16
    Format settings, Endianness              : Big
    Muxing mode                              : Header stripping
    Codec ID                                : A_DTS
    Duration                                : 1h 42mn
    Bit rate mode                            : Constant
    Bit rate                                : 1 509 Kbps
    Channel(s)                              : 6 channels
    Channel positions                        : Front: L C R, Side: L R, LFE
    Sampling rate                            : 48.0 KHz
    Bit depth                                : 24 bits
    Compression mode                        : Lossy
    Stream size                              : 1.08 GiB (12%)
    Title                                    : DTS
    Language                                : English
    Default                                  : No
    Forced                                  : No
    Text
    ID                                      : 5
    Format                                  : VobSub
    Muxing mode                              : zlib
    Codec ID                                : S_VOBSUB
    Codec ID/Info                            : The same subtitle format used on DVDs
    Language                                : Spanish
    Default                                  : No
    Forced                                  : No






    Código:

    https://openload.co/f/M58CC2iG_CM/fzenjh3d.part01.rar
    https://openload.co/f/NkBMxr0Wahw/fzenjh3d.part02.rar
    https://openload.co/f/Cfa5Y1AT5tc/fzenjh3d.part03.rar
    https://openload.co/f/D-rlOedFiTU/fzenjh3d.part04.rar
    https://openload.co/f/sFX06dRFP_c/fzenjh3d.part05.rar
    https://openload.co/f/aYTad88gIao/fzenjh3d.part06.rar
    https://openload.co/f/acuGZtcC-eI/fzenjh3d.part07.rar
    https://openload.co/f/sLaogscERGo/fzenjh3d.part08.rar
    https://openload.co/f/WWgXTGwdcvc/fzenjh3d.part09.rar
    https://openload.co/f/Ml7Y1b5kkz4/fzenjh3d.part10.rar
    https://openload.co/f/lWyWTum6x-k/fzenjh3d.part11.rar
    https://openload.co/f/NC9ORyiGdLE/fzenjh3d.part12.rar
    https://openload.co/f/-RK87U911iU/fzenjh3d.part13.rar
    https://openload.co/f/drFyJ8NxjvQ/fzenjh3d.part14.rar
    https://openload.co/f/Yl_cFSH6m0o/fzenjh3d.part15.rar
    https://openload.co/f/yBu4qloM8Fg/fzenjh3d.part16.rar
    https://openload.co/f/N0PpSsRvG8c/fzenjh3d.part17.rar
    https://openload.co/f/dZMsAPRqQlY/fzenjh3d.part18.rar
    https://openload.co/f/drrKUNB0gJY/fzenjh3d.part19.rar
    https://openload.co/f/zHEQEctYH1s/fzenjh3d.part20.rar
    https://openload.co/f/pGwVApb2n18/fzenjh3d.part21.rar
    https://openload.co/f/be8m9oB3nFM/fzenjh3d.part22.rar
    https://openload.co/f/-JP64q9n4z0/fzenjh3d.part23.rar
    https://openload.co/f/f_ct5-VqHN0/fzenjh3d.part24.rar
    https://openload.co/f/wY5je_q1AkI/fzenjh3d.part25.rar
    https://openload.co/f/MtZojNr9CMM/fzenjh3d.part26.rar
    https://openload.co/f/18l-4aEokwU/fzenjh3d.part27.rar
    https://openload.co/f/Yx5YwTW_zJk/fzenjh3d.part28.rar
    https://openload.co/f/CeWaWa0eDHY/fzenjh3d.part29.rar
    https://openload.co/f/aJb4VzWh_3w/fzenjh3d.part30.rar
    https://openload.co/f/I1WGB2iw-60/fzenjh3d.part31.rar
    https://openload.co/f/bM6H4JiXHL8/fzenjh3d.part32.rar
    https://openload.co/f/QbTvqo_hRZ8/fzenjh3d.part33.rar
    https://openload.co/f/zmuauflqbxM/fzenjh3d.part34.rar
    https://openload.co/f/o4gD_zLvNjk/fzenjh3d.part35.rar
    https://openload.co/f/UkhqoiF1uoI/fzenjh3d.part36.rar
    https://openload.co/f/mHITbfQ96O4/fzenjh3d.part37.rar
    Código:

    http://turbobit.net/t0phsqf3djcy/fzenjh3d.part01.rar.html
    http://turbobit.net/ulbklboa4ihi/fzenjh3d.part02.rar.html
    http://turbobit.net/n5ncj9j8tm9x/fzenjh3d.part03.rar.html
    http://turbobit.net/9n19kautrk1s/fzenjh3d.part04.rar.html
    http://turbobit.net/r7fcidlcv67h/fzenjh3d.part05.rar.html
    http://turbobit.net/bcupccfr535v/fzenjh3d.part06.rar.html
    http://turbobit.net/mit3apoeys0k/fzenjh3d.part07.rar.html
    http://turbobit.net/qkx88l8apzfk/fzenjh3d.part08.rar.html
    http://turbobit.net/3fu6211ajaah/fzenjh3d.part09.rar.html
    http://turbobit.net/j4y3zev5vawd/fzenjh3d.part10.rar.html
    http://turbobit.net/xvmleb7h4gxy/fzenjh3d.part11.rar.html
    http://turbobit.net/8hi7vfh4wqle/fzenjh3d.part12.rar.html
    http://turbobit.net/tio4u4xrm11x/fzenjh3d.part13.rar.html
    http://turbobit.net/kp853ewg73rs/fzenjh3d.part14.rar.html
    http://turbobit.net/at6glqs0j5wn/fzenjh3d.part15.rar.html
    http://turbobit.net/s7z9aoq6hjbb/fzenjh3d.part16.rar.html
    http://turbobit.net/p0xkqncae7ec/fzenjh3d.part17.rar.html
    http://turbobit.net/47wzwexzbpup/fzenjh3d.part18.rar.html
    http://turbobit.net/z3w5g1as5mkv/fzenjh3d.part19.rar.html
    http://turbobit.net/fztz0qhzrle0/fzenjh3d.part20.rar.html
    http://turbobit.net/ptouyb5yyrr6/fzenjh3d.part21.rar.html
    http://turbobit.net/e2jx422tepos/fzenjh3d.part22.rar.html
    http://turbobit.net/6568wfwibhyc/fzenjh3d.part23.rar.html
    http://turbobit.net/n8j7pwfa62io/fzenjh3d.part24.rar.html
    http://turbobit.net/bhcvno48oras/fzenjh3d.part25.rar.html
    http://turbobit.net/4p0j9ald1nu1/fzenjh3d.part26.rar.html
    http://turbobit.net/lnxy1rsv962v/fzenjh3d.part27.rar.html
    http://turbobit.net/38qgjs5fvi0z/fzenjh3d.part28.rar.html
    http://turbobit.net/fxauriynkxed/fzenjh3d.part29.rar.html
    http://turbobit.net/49d0lk2q5e01/fzenjh3d.part30.rar.html
    http://turbobit.net/84rtehfs33gx/fzenjh3d.part31.rar.html
    http://turbobit.net/56o3x8nf3sl9/fzenjh3d.part32.rar.html
    http://turbobit.net/96h4yeocsf0s/fzenjh3d.part33.rar.html
    http://turbobit.net/rea7vpfxpyfi/fzenjh3d.part34.rar.html
    http://turbobit.net/n0rj3ie8gnle/fzenjh3d.part35.rar.html
    http://turbobit.net/t2jzr516tlsf/fzenjh3d.part36.rar.html
    http://turbobit.net/31w5kv2fw67h/fzenjh3d.part37.rar.html

      Fecha y hora actual: Lun Ago 21, 2017 11:39 pm