JAPAN SUFFERING

EL MEJOR FORO DE DESCARGAS DE MUSICA, JUEGOS Y VIDEOS.

JAPAN SUFFERING FORO DE CALIDAD Y CANTIDAD, SOMOS MAS QUE SOLO UN FORO...

    I, Robot (2004)(3D H-SBS 1080p)(Ing-Lat)

    Comparte

    pomposos
    JS Guest
    JS Guest

    Mensajes : 5972
    Reputación : 0
    Fecha de inscripción : 29/10/2013

    I, Robot (2004)(3D H-SBS 1080p)(Ing-Lat)

    Mensaje por pomposos el Vie Abr 07, 2017 12:58 pm




    TITULO ORIGINAL: I, Robot
    ANO: 2004
    DURACION: 115 min.
    PAIS: USA
    DIRECTOR: Alex Proyas
    GUION: Jeff Vintar & Akiva Goldsman (Relatos: Isaac Asimov)
    REPARTO: Will Smith, Bridget Moynahan, Bruce Greenwood, Chi McBride, Alan Tudyk, James Cromwell, Jerry Wasserman, Shia LaBeouf
    PRODUCTORA: 20th Century Fox
    GENERO: Ciencia ficcion. Thriller | Robots. Cyberpunk
    Código:

    http://www.imdb.com/title/tt0343818/
    Sinopsis: Chicago, ano 2035. Vivimos en completa armonia con robots inteligentes. Cocinan para nosotros, conducen nuestros aviones, cuidan de nuestros hijos y confiamos plenamente en ellos debido a que se rigen por las Tres Leyes de la Robotica que nos protegen de cualquier dano. Inesperadamente un robot se ve implicado en el crimen de un brillante cientifico y el detective Del Spooner (Will Smith) queda a cargo de la investigacion.
    Trailer
    [Tienes que estar registrado y conectado para ver este vínculo]

    Código:

    General
    Format                                  : Matroska
    Format version                          : Version 3 / Version 2
    File size                                : 13.4 GiB
    Duration                                : 1h 54mn
    Overall bit rate                        : 16.7 Mbps
    Encoded date: UTC 2012-12-18 02:20:12
    Writing application: mkvmerge v5.7.0 (The Whirlwind) built on Jul  8 2012 20:08:51
    Writing library                          : libebml v1.2.3 + libmatroska v1.3.0
    Attachment                              : Yes / Yes
    Video
    ID                                      : 1
    Format                                  : AVC
    Format/Info                              : Advanced Video Codec
    Format profile                          : High@L4.1
    MultiView_Count                          : 2
    MultiView_Layout                        : Side by Side (left eye first)
    Format settings, CABAC                  : Yes
    Format settings, ReFrames                : 4 frames
    Codec ID                                : V_MPEG4/ISO/AVC
    Duration                                : 1h 54mn
    Bit rate                                : 13.6 Mbps
    Width                                    : 1 920 pixels
    Height                                  : 1 080 pixels
    Display aspect ratio                    : 16:9
    Frame rate mode                          : Constant
    Frame rate                              : 23.976 fps
    Color space                              : YUV
    Chroma subsampling                      : 4:2:0
    Bit depth                                : 8 bits
    Scan type                                : Progressive
    Bits/(Pixel*Frame)                      : 0.274
    Stream size                              : 10.9 GiB (81%)
    Writing library                          : x264 core 128 r2216 198a7ea
    Language                                : English
    Default                                  : Yes
    Forced                                  : No
    Audio #1
    ID                                      : 2
    Format                                  : AC-3
    Format/Info                              : Audio Coding 3
    Mode extension                          : CM (complete main)
    Format settings, Endianness              : Big
    Codec ID                                : A_AC3
    Duration                                : 1h 54mn
    Bit rate mode                            : Constant
    Bit rate                                : 640 Kbps
    Channel(s)                              : 6 channels
    Channel positions                        : Front: L C R, Side: L R, LFE
    Sampling rate                            : 48.0 KHz
    Bit depth                                : 16 bits
    Compression mode                        : Lossy
    Stream size                              : 525 MiB (4%)
    Title                                    : AC3 5.1
    Language                                : Spanish
    Default                                  : Yes
    Forced                                  : No
    Audio #2
    ID                                      : 3
    Format                                  : AC-3
    Format/Info                              : Audio Coding 3
    Mode extension                          : CM (complete main)
    Format settings, Endianness              : Big
    Codec ID                                : A_AC3
    Duration                                : 1h 54mn
    Bit rate mode                            : Constant
    Bit rate                                : 640 Kbps
    Channel(s)                              : 6 channels
    Channel positions                        : Front: L C R, Side: L R, LFE
    Sampling rate                            : 48.0 KHz
    Bit depth                                : 16 bits
    Compression mode                        : Lossy
    Stream size                              : 525 MiB (4%)
    Title                                    : AC3 5.1
    Language                                : English
    Default                                  : No
    Forced                                  : No
    Audio #3
    ID                                      : 4
    Format                                  : DTS
    Format/Info                              : Digital Theater Systems
    Mode                                    : 16
    Format settings, Endianness              : Big
    Codec ID                                : A_DTS
    Duration                                : 1h 54mn
    Bit rate mode                            : Constant
    Bit rate                                : 1 509 Kbps
    Channel(s)                              : 6 channels
    Channel positions                        : Front: L C R, Side: L R, LFE
    Sampling rate                            : 48.0 KHz
    Bit depth                                : 24 bits
    Compression mode                        : Lossy
    Delay relative to video                  : 11ms
    Stream size                              : 1.21 GiB (9%)
    Title                                    : DTS 5.1
    Language                                : English
    Default                                  : No
    Forced                                  : No
    Text #1
    ID                                      : 5
    Format                                  : UTF-8
    Codec ID                                : S_TEXT/UTF8
    Codec ID/Info                            : UTF-8 Plain Text
    Title                                    : Forzados
    Language                                : Spanish
    Default                                  : Yes
    Forced                                  : No
    Text #2
    ID                                      : 6
    Format                                  : UTF-8
    Codec ID                                : S_TEXT/UTF8
    Codec ID/Info                            : UTF-8 Plain Text
    Language                                : Spanish
    Default                                  : No
    Forced                                  : No








    Código:

    https://filejoker.net/ixbabpewgcfi/ioboh3d.part01.rar
    https://filejoker.net/ng56grw36it7/ioboh3d.part02.rar
    https://filejoker.net/w6gbm8a23cxn/ioboh3d.part03.rar
    https://filejoker.net/3djvzont4xoo/ioboh3d.part04.rar
    https://filejoker.net/c67lqnmxhp5p/ioboh3d.part05.rar
    https://filejoker.net/flfdmkliyn5j/ioboh3d.part06.rar
    https://filejoker.net/ky1oaeqfqwkk/ioboh3d.part07.rar
    https://filejoker.net/rqhjjo52dwul/ioboh3d.part08.rar
    https://filejoker.net/t5tpepdbppbo/ioboh3d.part09.rar
    https://filejoker.net/puy9dm2ogutr/ioboh3d.part10.rar
    https://filejoker.net/vhzqvt1rtnjh/ioboh3d.part11.rar
    https://filejoker.net/x903cdq0bc78/ioboh3d.part12.rar
    https://filejoker.net/7c39letwpcrj/ioboh3d.part13.rar
    https://filejoker.net/8y9kcfkbcxbv/ioboh3d.part14.rar
    https://filejoker.net/ncfsfg9vupdc/ioboh3d.part15.rar
    https://filejoker.net/47xozcl3npmd/ioboh3d.part16.rar
    https://filejoker.net/d0lnno3yooy9/ioboh3d.part17.rar
    https://filejoker.net/8j41il4h43bw/ioboh3d.part18.rar
    https://filejoker.net/fxlv0ote1usp/ioboh3d.part19.rar
    https://filejoker.net/zar32xcr1lzj/ioboh3d.part20.rar
    https://filejoker.net/lxw7mz0dwhdj/ioboh3d.part21.rar
    https://filejoker.net/emagnt46xw63/ioboh3d.part22.rar
    https://filejoker.net/a1eqp0gua4u5/ioboh3d.part23.rar
    https://filejoker.net/26oo5xqtpjs9/ioboh3d.part24.rar
    https://filejoker.net/y1bm9v2d9w6f/ioboh3d.part25.rar
    https://filejoker.net/k3nccobhbm2f/ioboh3d.part26.rar
    https://filejoker.net/mfqe8gei3nki/ioboh3d.part27.rar
    https://filejoker.net/7ii2y1jzluv8/ioboh3d.part28.rar
    https://filejoker.net/hzamklwo9d78/ioboh3d.part29.rar
    https://filejoker.net/lnwkmtu8g34a/ioboh3d.part30.rar
    https://filejoker.net/yyelfcb9iamk/ioboh3d.part31.rar
    https://filejoker.net/f4cy778l4d0x/ioboh3d.part32.rar
    https://filejoker.net/x0haqudhpd5n/ioboh3d.part33.rar
    https://filejoker.net/fju1g3of9mxk/ioboh3d.part34.rar
    https://filejoker.net/1tj6spjplvsm/ioboh3d.part35.rar
    https://filejoker.net/bte51ymgttie/ioboh3d.part36.rar
    https://filejoker.net/do7etqp52tyl/ioboh3d.part37.rar
    https://filejoker.net/qgshdsnlluah/ioboh3d.part38.rar
    https://filejoker.net/grqn83u0cb8p/ioboh3d.part39.rar
    https://filejoker.net/rjpywkhfuue7/ioboh3d.part40.rar
    https://filejoker.net/xp26h8fk4h6u/ioboh3d.part41.rar
    https://filejoker.net/3q4agr46i1uh/ioboh3d.part42.rar
    https://filejoker.net/3o5hw2asvv3z/ioboh3d.part43.rar
    https://filejoker.net/v3zi517duekq/ioboh3d.part44.rar
    https://filejoker.net/33m6ca6exz14/ioboh3d.part45.rar
    https://filejoker.net/wnrz1lajmhi8/ioboh3d.part46.rar
    https://filejoker.net/gh7kr4p541gi/ioboh3d.part47.rar
    https://filejoker.net/8s8ghen2jfmd/ioboh3d.part48.rar
    https://filejoker.net/4qrm301mekhn/ioboh3d.part49.rar
    https://filejoker.net/btgxn2fli2f1/ioboh3d.part50.rar
    https://filejoker.net/3x84drc0oiee/ioboh3d.part51.rar
    https://filejoker.net/oyte8r1wreqy/ioboh3d.part52.rar
    https://filejoker.net/v0aho0xwxesc/ioboh3d.part53.rar
    https://filejoker.net/ypgl7ixk6zdg/ioboh3d.part54.rar
    https://filejoker.net/bzjann9rvujq/ioboh3d.part55.rar

      Fecha y hora actual: Vie Dic 15, 2017 9:42 pm