JAPAN SUFFERING

EL MEJOR FORO DE DESCARGAS DE MUSICA, JUEGOS Y VIDEOS.

JAPAN SUFFERING FORO DE CALIDAD Y CANTIDAD, SOMOS MAS QUE SOLO UN FORO...

    Inside Out (2015)(3D H-SBS 1080p)(Ing-Lat)

    Comparte

    pomposos
    JS Guest
    JS Guest

    Mensajes : 5619
    Reputación : 0
    Fecha de inscripción : 29/10/2013

    Inside Out (2015)(3D H-SBS 1080p)(Ing-Lat)

    Mensaje por pomposos el Vie Abr 07, 2017 1:29 pm




    Titulo original: Inside Out
    Ano: 2015
    Duracion: 94 min.
    Pais: Estados Unidos
    Director: Pete Docter, Ronaldo Del Carmen
    Guion: Michael Arndt (Historia: Pete Docter)
    Musica: Michael Giacchino
    Fotografia: Animation
    Reparto: Animation
    Productora: Pixar Animation Studios / Walt Disney Pictures
    Genero: Animacion. Fantastico. Aventuras. Comedia | Infancia. Familia. Pixar. 3-D
    Sinopsis: Cuenta la historia de Riley, una chica que, como todas las personas, tiene a las cinco emociones en su interior acompanandola. Su vida ha estado marcada por la Alegria, que se ocupa de que todo vaya bien en su vida, aunque las demas emociones tambien participan en el dia a dia de la chica. Por desgracia, el grupo de emociones, que por lo general tiene claro su papel, no entiende muy bien cual es el motivo de que tenga que existir Tristeza. Una serie de acontecimientos llevan a que Alegria y Tristeza se vean introducidas en una peligrosa aventura en la cual el mundo interior de Riley se pondra patas arriba.
    Código:
    http://www.imdb.com/title/tt2096673/
    Trailer
    [Tienes que estar registrado y conectado para ver este vínculo]

    Código:

    General
    Format : Matroska
    Format version : Version 4 / Version 2
    File size : 8.43 GiB
    Duration : 1h 34mn
    Overall bit rate : 12.8 Mbps
    Encoded date : UTC 2015-10-20 22:35:41
    Writing application : mkvmerge v7.1.0 (Good Love) 64bit built on Jul 27 2014 13:06:55
    Writing library : libebml v1.3.0 + libmatroska v1.4.1
    Video
    ID : 1
    Format : AVC
    Format/Info : Advanced Video Codec
    Format profile : High@L4.1
    Format settings, CABAC : Yes
    Format settings, ReFrames : 4 frames
    Codec ID : V_MPEG4/ISO/AVC
    Duration : 1h 34mn
    Bit rate : 10 000 Kbps
    Width : 1 920 pixels
    Height : 1 080 pixels
    Display aspect ratio : 16:9
    Frame rate mode : Constant
    Frame rate : 23.976 fps
    Color space : YUV
    Chroma subsampling : 4:2:0
    Bit depth : 8 bits
    Scan type : Progressive
    Bits/(Pixel*Frame) : 0.201
    Stream size : 6.42 GiB (76%)
    Writing library : x264 core 133 r2334 a3ac64b
    Language : English
    Default : Yes
    Forced : No
    Audio #1
    ID : 2
    Format : AC-3
    Format/Info : Audio Coding 3
    Mode extension : CM (complete main)
    Format settings, Endianness : Big
    Codec ID : A_AC3
    Duration : 1h 34mn
    Bit rate mode : Constant
    Bit rate : 640 Kbps
    Channel(s) : 6 channels
    Channel positions : Front: L C R, Side: L R, LFE
    Sampling rate : 48.0 KHz
    Bit depth : 16 bits
    Compression mode : Lossy
    Stream size : 433 MiB (5%)
    Title : AC3 5.1 Bluray
    Language : Spanish
    Default : Yes
    Forced : No
    Audio #2
    ID : 3
    Format : AC-3
    Format/Info : Audio Coding 3
    Mode extension : CM (complete main)
    Format settings, Endianness : Big
    Codec ID : A_AC3
    Duration : 1h 34mn
    Bit rate mode : Constant
    Bit rate : 640 Kbps
    Channel(s) : 6 channels
    Channel positions : Front: L C R, Side: L R, LFE
    Sampling rate : 48.0 KHz
    Bit depth : 16 bits
    Compression mode : Lossy
    Stream size : 433 MiB (5%)
    Title : AC3 5.1
    Language : English
    Default : No
    Forced : No
    Audio #3
    ID : 4
    Format : DTS
    Format/Info : Digital Theater Systems
    Mode : 16
    Format settings, Endianness : Big
    Codec ID : A_DTS
    Duration : 1h 34mn
    Bit rate mode : Constant
    Bit rate : 1 509 Kbps
    Channel(s) : 6 channels
    Channel positions : Front: L C R, Side: L R, LFE
    Sampling rate : 48.0 KHz
    Bit depth : 24 bits
    Compression mode : Lossy
    Stream size : 1 021 MiB (12%)
    Title : DTS 5.1
    Language : English
    Default : No
    Forced : No
    Text
    ID : 5
    Format : UTF-8
    Codec ID : S_TEXT/UTF8
    Codec ID/Info : UTF-8 Plain Text
    Language : Spanish
    Default : No
    Forced : No








    Código:

    https://filejoker.net/dx10s4lcjhym/inouth3d.part01.rar
    https://filejoker.net/e448ol91ro55/inouth3d.part02.rar
    https://filejoker.net/ltqg2bjqirp7/inouth3d.part03.rar
    https://filejoker.net/u4hxysjb8qx5/inouth3d.part04.rar
    https://filejoker.net/nkbhsox6g1hc/inouth3d.part05.rar
    https://filejoker.net/qna8408m1h44/inouth3d.part06.rar
    https://filejoker.net/vg87akh1errb/inouth3d.part07.rar
    https://filejoker.net/wrw7esfj3pv3/inouth3d.part08.rar
    https://filejoker.net/vl8jrkhgevha/inouth3d.part09.rar
    https://filejoker.net/08yy88icopak/inouth3d.part10.rar
    https://filejoker.net/a66e0vx6df7n/inouth3d.part11.rar
    https://filejoker.net/feqm952px0b8/inouth3d.part12.rar
    https://filejoker.net/gyuwc3s03qck/inouth3d.part13.rar
    https://filejoker.net/y5hor0hun66a/inouth3d.part14.rar
    https://filejoker.net/b4mvlr3bee5r/inouth3d.part15.rar
    https://filejoker.net/blwz49w4g2xb/inouth3d.part16.rar
    https://filejoker.net/23lp3kawpqm4/inouth3d.part17.rar
    https://filejoker.net/zcq2ctlcm5bu/inouth3d.part18.rar
    https://filejoker.net/smhfem21dmce/inouth3d.part19.rar
    https://filejoker.net/2iw3wnbd3hhk/inouth3d.part20.rar
    https://filejoker.net/y94t8hcxlgpu/inouth3d.part20.rar
    https://filejoker.net/qtqjqtmurcqv/inouth3d.part21.rar
    https://filejoker.net/tlcq0dupc59u/inouth3d.part22.rar
    https://filejoker.net/wsiyi8cb65ih/inouth3d.part23.rar
    https://filejoker.net/2bku33kz18lr/inouth3d.part24.rar
    https://filejoker.net/7t8i02it00mk/inouth3d.part25.rar
    https://filejoker.net/1zfukrp37jby/inouth3d.part26.rar
    https://filejoker.net/en9ynj9hskue/inouth3d.part27.rar
    https://filejoker.net/oanz9hmsjsux/inouth3d.part28.rar
    https://filejoker.net/70ipye6ekyio/inouth3d.part29.rar
    https://filejoker.net/phboyige1d1y/inouth3d.part30.rar
    https://filejoker.net/rxx38nmk3buu/inouth3d.part31.rar
    https://filejoker.net/n0rcfw3zss6j/inouth3d.part32.rar
    https://filejoker.net/xcek2o593r90/inouth3d.part33.rar
    https://filejoker.net/lwbiywhm4s7v/inouth3d.part34.rar
    https://filejoker.net/ncdld5hhssaq/inouth3d.part35.rar

      Fecha y hora actual: Mar Oct 17, 2017 4:49 pm