JAPAN SUFFERING

EL MEJOR FORO DE DESCARGAS DE MUSICA, JUEGOS Y VIDEOS.

JAPAN SUFFERING FORO DE CALIDAD Y CANTIDAD, SOMOS MAS QUE SOLO UN FORO...

    Noah (2014)(3D H-SBS 1080p)(Ing-Lat)

    Comparte

    pomposos
    JS Guest
    JS Guest

    Mensajes : 5619
    Reputación : 0
    Fecha de inscripción : 29/10/2013

    Noah (2014)(3D H-SBS 1080p)(Ing-Lat)

    Mensaje por pomposos el Sáb Abr 08, 2017 5:19 pm




    Titulo original: Noah
    Titulo en Latino: Noe
    Ano: 2014
    Duracion: 138 min.
    Pais: Estados Unidos
    Director: Darren Aronofsky
    Guion: Darren Aronofsky, Ari Handel
    Musica: Clint Mansell
    Fotografia: Matthew Libatique
    Reparto: Russell Crowe, Jennifer Connelly, Emma Watson, Anthony Hopkins, Ray Winstone, Logan Lerman, Douglas Booth, Marton Csokas, Nick Nolte, Mark Margolis, Leo McHugh Carroll, Kevin Durand, Madison Davenport, Dakota Goyo, Gavin Casalegno, Nolan Gross, Skylar Burke
    Productora: Paramount Pictures / New Regency
    Genero: Fantastico. Aventuras. Drama | Biblia. Religion. Cine epico. Catastrofes
    [Tienes que estar registrado y conectado para ver este vínculo]
    Sinopsis: En un mundo asolado por los pecados humanos, Noe, un hombre pacifico que solo desea vivir tranquilo con su familia, recibe una mision divina: construir un Arca para salvar a la creacion del inminente diluvio. Todo comienza cuando, cada noche, Noe tiene el mismo sueno: las visiones de muerte provocada por el agua, seguidas de nueva vida en la Tierra
    Trailer
    [Tienes que estar registrado y conectado para ver este vínculo]

    Código:

    General
    Complete name : Noah (2014) 3D H-SBS 1080p.mkv
    Format: Matroska
    Format version: Version 4 / Version 2
    File size: 14.6 GiB
    Duration: 2h 17mn
    Overall bit rate: 15.2 Mbps
    Movie name: Noah (2014) 3D H-SBS 1080p
    Encoded date: UTC 2014-07-23 21:59:05
    Writing application: mkvmerge v6.8.0 (Theme for Great Cities) 64bit built on Mar  2 2014 21:34:26
    Writing library: libebml v1.3.0 + libmatroska v1.4.1
    Video
    ID: 1
    Format: AVC
    Format/Info: Advanced Video Codec
    Format profile: High@L4.1
    Format settings, CABAC: Yes
    Format settings, ReFrames: 4 frames
    Codec ID: V_MPEG4/ISO/AVC
    Duration: 2h 17mn
    Bit rate: 12.5 Mbps
    Width: 1 920 pixels
    Height                                  : 1 080 pixels
    Display aspect ratio                    : 16:9
    Frame rate mode                          : Constant
    Frame rate                              : 23.976 fps
    Color space                              : YUV
    Chroma subsampling                      : 4:2:0
    Bit depth                                : 8 bits
    Scan type                                : Progressive
    Bits/(Pixel*Frame)                      : 0.251
    Stream size                              : 11.6 GiB (80%)
    Title                                    : Noah (2014) 3D H-SBS 1080p
    Writing library                          : x264 core 142 r2431 ac76440
    Language                                : Spanish
    Default                                  : Yes
    Forced                                  : No
    Color primaries                          : BT.709
    Transfer characteristics                : BT.709
    Matrix coefficients                      : BT.709
    Audio #1
    ID                                      : 2
    Format                                  : AC-3
    Format/Info                              : Audio Coding 3
    Mode extension                          : CM (complete main)
    Format settings, Endianness              : Big
    Codec ID                                : A_AC3
    Duration                                : 2h 17mn
    Bit rate mode                            : Constant
    Bit rate                                : 640 Kbps
    Channel(s)                              : 6 channels
    Channel positions                        : Front: L C R, Side: L R, LFE
    Sampling rate                            : 48.0 KHz
    Bit depth                                : 16 bits
    Compression mode                        : Lossy
    Delay relative to video                  : -83ms
    Stream size                              : 631 MiB (4%)
    Title                                    : Noah (2014) - AC3 5.1
    Language                                : Spanish
    Default                                  : Yes
    Forced                                  : No
    Audio #2
    ID                                      : 3
    Format                                  : AC-3
    Format/Info                              : Audio Coding 3
    Mode extension                          : CM (complete main)
    Format settings, Endianness              : Big
    Codec ID                                : A_AC3
    Duration                                : 2h 17mn
    Bit rate mode                            : Constant
    Bit rate                                : 640 Kbps
    Channel(s)                              : 6 channels
    Channel positions                        : Front: L C R, Side: L R, LFE
    Sampling rate                            : 48.0 KHz
    Bit depth                                : 16 bits
    Compression mode                        : Lossy
    Delay relative to video                  : -83ms
    Stream size                              : 631 MiB (4%)
    Title                                    : Noah (2014) - AC3 5.1
    Language                                : English
    Default                                  : No
    Forced                                  : No
    Audio #3
    ID                                      : 4
    Format                                  : DTS
    Format/Info                              : Digital Theater Systems
    Mode                                    : 16
    Format settings, Endianness              : Big
    Codec ID                                : A_DTS
    Duration                                : 2h 17mn
    Bit rate mode                            : Constant
    Bit rate                                : 1 509 Kbps
    Channel(s)                              : 6 channels
    Channel positions                        : Front: L C R, Side: L R, LFE
    Sampling rate                            : 48.0 KHz
    Bit depth                                : 24 bits
    Compression mode                        : Lossy
    Stream size                              : 1.45 GiB (10%)
    Title                                    : Noah (2014) - DTS 5.1
    Language                                : English
    Default                                  : No
    Forced                                  : No
    Text
    ID                                      : 5
    Format                                  : UTF-8
    Codec ID                                : S_TEXT/UTF8
    Codec ID/Info                            : UTF-8 Plain Text
    Title                                    : Noah (2014) - Subt
    Language                                : Spanish
    Default                                  : No
    Forced                                  : No









    Código:

    https://filejoker.net/xr9w47dqc2z4/noahdi3d.part01.rar
    https://filejoker.net/5dl719nscdnc/noahdi3d.part02.rar
    https://filejoker.net/hqryi87yxg8o/noahdi3d.part03.rar
    https://filejoker.net/9i85sugdlw87/noahdi3d.part04.rar
    https://filejoker.net/a05k9jh75960/noahdi3d.part05.rar
    https://filejoker.net/ov2bsk7a4sxn/noahdi3d.part06.rar
    https://filejoker.net/b7zq8i2etp07/noahdi3d.part07.rar
    https://filejoker.net/yhehvoarnsxh/noahdi3d.part08.rar
    https://filejoker.net/rh6ssj253o05/noahdi3d.part09.rar
    https://filejoker.net/zuo1dkk2z7sl/noahdi3d.part10.rar
    https://filejoker.net/tlnyklw6x46q/noahdi3d.part11.rar
    https://filejoker.net/jrwxaku0xam3/noahdi3d.part12.rar
    https://filejoker.net/iar95rrpun46/noahdi3d.part13.rar
    https://filejoker.net/yrt9sckp2i4q/noahdi3d.part14.rar
    https://filejoker.net/2z6puy11u5ik/noahdi3d.part15.rar
    https://filejoker.net/s3xbik2keyzi/noahdi3d.part16.rar
    https://filejoker.net/21gpuwvc835f/noahdi3d.part17.rar
    https://filejoker.net/8j4kdpmy5shb/noahdi3d.part18.rar
    https://filejoker.net/p5vke5m55ios/noahdi3d.part19.rar
    https://filejoker.net/91yoil1ssokn/noahdi3d.part20.rar
    https://filejoker.net/pkocai186dns/noahdi3d.part21.rar
    https://filejoker.net/ra6oydrbpv3g/noahdi3d.part22.rar
    https://filejoker.net/vl8ar33uio1a/noahdi3d.part23.rar
    https://filejoker.net/71qwcdwmjs4d/noahdi3d.part24.rar
    https://filejoker.net/bjlvmqelm0sf/noahdi3d.part25.rar
    https://filejoker.net/h6qgyz6km7rh/noahdi3d.part26.rar
    https://filejoker.net/5f43d3ehzg90/noahdi3d.part27.rar
    https://filejoker.net/ina2hwoxd8l5/noahdi3d.part28.rar
    https://filejoker.net/9m1781j549rw/noahdi3d.part29.rar
    https://filejoker.net/qwg9cglzbt2k/noahdi3d.part30.rar
    https://filejoker.net/ywsiaxe38ti1/noahdi3d.part31.rar
    https://filejoker.net/o7gxclzjvcdm/noahdi3d.part32.rar
    https://filejoker.net/a7tt2a6prqsk/noahdi3d.part33.rar
    https://filejoker.net/dynv4ymju0i1/noahdi3d.part34.rar
    https://filejoker.net/nmofnjztryt9/noahdi3d.part35.rar
    https://filejoker.net/phhkvso9m8zm/noahdi3d.part36.rar
    https://filejoker.net/c4n92mhkfibu/noahdi3d.part37.rar
    https://filejoker.net/efpj63pd8xc8/noahdi3d.part38.rar
    https://filejoker.net/roef78ckdzu6/noahdi3d.part39.rar
    https://filejoker.net/8znqkritdx1t/noahdi3d.part40.rar
    https://filejoker.net/zqqcud0b7bvx/noahdi3d.part41.rar
    https://filejoker.net/gn44vui84idi/noahdi3d.part42.rar
    https://filejoker.net/n0b9ppeg5ouy/noahdi3d.part43.rar
    https://filejoker.net/kzgouto48in5/noahdi3d.part44.rar
    https://filejoker.net/7xhr9j0ool6q/noahdi3d.part45.rar
    https://filejoker.net/snwhb3rhvak0/noahdi3d.part46.rar
    https://filejoker.net/ybl8fwjr485m/noahdi3d.part47.rar
    https://filejoker.net/mzk2k0mxzatp/noahdi3d.part48.rar
    https://filejoker.net/gw3nulrvxeoe/noahdi3d.part49.rar
    https://filejoker.net/kq42hmn0svur/noahdi3d.part50.rar
    https://filejoker.net/gmvadychzm06/noahdi3d.part51.rar
    https://filejoker.net/ncq4vzxyz9nd/noahdi3d.part52.rar
    https://filejoker.net/mavqyy52dm9o/noahdi3d.part53.rar
    https://filejoker.net/zlvh1kdw8byu/noahdi3d.part54.rar
    https://filejoker.net/3uyenrrlvel0/noahdi3d.part55.rar
    https://filejoker.net/gqq51guyyc2l/noahdi3d.part56.rar
    https://filejoker.net/5eo10jrsauq6/noahdi3d.part57.rar
    https://filejoker.net/7uqam6vkxcwa/noahdi3d.part58.rar
    https://filejoker.net/v3ae6wk31x75/noahdi3d.part59.rar
    https://filejoker.net/pmkvrdvbgamy/noahdi3d.part60.rar

      Fecha y hora actual: Mar Oct 17, 2017 4:55 pm