JAPAN SUFFERING

EL MEJOR FORO DE DESCARGAS DE MUSICA, JUEGOS Y VIDEOS.

JAPAN SUFFERING FORO DE CALIDAD Y CANTIDAD, SOMOS MAS QUE SOLO UN FORO...

    Poltergeist (2015)(3D H-SBS 1080p)(Ing-Lat)

    Comparte

    pomposos
    JS Guest
    JS Guest

    Mensajes : 5972
    Reputación : 0
    Fecha de inscripción : 29/10/2013

    Poltergeist (2015)(3D H-SBS 1080p)(Ing-Lat)

    Mensaje por pomposos el Dom Abr 09, 2017 5:13 pm




    Titulo original: Poltergeist
    Ano: 2015
    Duracion: 93 min.
    Pais: Estados Unidos
    Director: Gil Kenan
    Guion: David Lindsay-Abaire
    Musica: Marc Streitenfeld
    Fotografia: Javier Aguirresarobe
    Reparto: Kennedi Clements, Sam Rockwell, Rosemarie DeWitt, Kyle Catlett, Jared Harris, Nicholas Braun, Jane Adams, Saxon Sharbino, Susan Heyward, Soma Bhatia, Karen Ivany, L.A. Lopes
    Productora: Fox 2000 Pictures / Metro-Goldwyn-Mayer (MGM) / Ghost House Pictures
    Genero: Terror. Fantastico | Casas encantadas. Fantasmas. Remake
    Sinopsis: Cuenta la historia de una familia que, tras mudarse a una nueva casa, se ve azotada por los espiritus de los que la habitaron en el pasado. El foco del ataque sobrenatural se centra en la hija mas pequena del matrimonio. Remake del clasico de 1982
    Código:
    http://www.imdb.com/title/tt1029360
    Trailer
    [Tienes que estar registrado y conectado para ver este vínculo]

    Código:

    General
    Format : Matroska
    Format version : Version 4 / Version 2
    File size : 13.9 GiB
    Duration : 1h 33mn
    Overall bit rate mode : Variable
    Overall bit rate : 21.3 Mbps
    Encoded date : UTC 2015-09-19 15:05:36
    Writing application : mkvmerge v7.1.0 (Good Love) 64bit built on Jul 27 2014 13:06:55
    Writing library : libebml v1.3.0 + libmatroska v1.4.1
    Video
    ID : 1
    Format : AVC
    Format/Info : Advanced Video Codec
    Format profile : High@L4.1
    Format settings, CABAC : Yes
    Format settings, ReFrames : 2 frames
    Format settings, GOP : M=3, N=24
    Codec ID : V_MPEG4/ISO/AVC
    Duration : 1h 33mn
    Nominal bit rate : 15.5 Mbps
    Width : 1 920 pixels
    Height : 1 080 pixels
    Display aspect ratio : 16:9
    Frame rate mode : Constant
    Frame rate : 23.976 fps
    Color space : YUV
    Chroma subsampling : 4:2:0
    Bit depth : 8 bits
    Scan type : Progressive
    Bits/(Pixel*Frame) : 0.312
    Writing library : x264 core 142
    Language : English
    Default : Yes
    Forced : No
    Color primaries : BT.709
    Transfer characteristics : BT.709
    Matrix coefficients : BT.709
    Audio #1
    ID : 2
    Format : AC-3
    Format/Info : Audio Coding 3
    Mode extension : CM (complete main)
    Format settings, Endianness : Big
    Codec ID : A_AC3
    Duration : 1h 33mn
    Bit rate mode : Constant
    Bit rate : 448 Kbps
    Channel(s) : 6 channels
    Channel positions : Front: L C R, Side: L R, LFE
    Sampling rate : 48.0 KHz
    Bit depth : 16 bits
    Compression mode : Lossy
    Stream size : 300 MiB (2%)
    Language : Spanish
    Default : Yes
    Forced : No
    Audio #2
    ID : 3
    Format : AC-3
    Format/Info : Audio Coding 3
    Mode extension : CM (complete main)
    Format settings, Endianness : Big
    Codec ID : A_AC3
    Duration : 1h 33mn
    Bit rate mode : Constant
    Bit rate : 448 Kbps
    Channel(s) : 6 channels
    Channel positions : Front: L C R, Side: L R, LFE
    Sampling rate : 48.0 KHz
    Bit depth : 16 bits
    Compression mode : Lossy
    Stream size : 300 MiB (2%)
    Title : AC3
    Language : English
    Default : No
    Forced : No
    Audio #3
    ID : 4
    Format : DTS
    Format/Info : Digital Theater Systems
    Format profile : MA / Core
    Mode : 16
    Format settings, Endianness : Big
    Codec ID : A_DTS
    Duration : 1h 33mn
    Bit rate mode : Variable
    Bit rate : Unknown / 1 509 Kbps
    Channel(s) : 8 channels / 6 channels
    Channel positions : Front: L C R, Side: L R, Back: L R, LFE / Front: L C R, Side: L R, LFE
    Sampling rate : 48.0 KHz
    Bit depth : 24 bits
    Compression mode : Lossless / Lossy
    Title : DTS
    Language : English
    Default : No
    Forced : No
    Text
    ID : 5
    Format : PGS
    Muxing mode : zlib
    Codec ID : S_HDMV/PGS
    Codec ID/Info : The same subtitle format used on BDs/HD-DVDs
    Language : Spanish
    Default : No
    Forced : No









    Código:

    https://filejoker.net/ccgn575c3at7/polteg3d.part01.rar
    https://filejoker.net/rz1udf8wvm8o/polteg3d.part02.rar
    https://filejoker.net/j6e49ak21b9n/polteg3d.part03.rar
    https://filejoker.net/q7v2g4bb3i4j/polteg3d.part04.rar
    https://filejoker.net/4qkn7wtaphmd/polteg3d.part05.rar
    https://filejoker.net/lv0v9zz5hsa1/polteg3d.part06.rar
    https://filejoker.net/u62r8fohlf4i/polteg3d.part07.rar
    https://filejoker.net/z2jxcgjx49rp/polteg3d.part08.rar
    https://filejoker.net/8p77m5y7j5rq/polteg3d.part09.rar
    https://filejoker.net/kt05u05z6tcd/polteg3d.part10.rar
    https://filejoker.net/wz0p7b8zhx85/polteg3d.part11.rar
    https://filejoker.net/ufrmmxbbm8yq/polteg3d.part12.rar
    https://filejoker.net/3sa7q5q66rh1/polteg3d.part13.rar
    https://filejoker.net/3jchbz480q9c/polteg3d.part14.rar
    https://filejoker.net/pik33c3ved05/polteg3d.part15.rar
    https://filejoker.net/wsexwetkmjya/polteg3d.part16.rar
    https://filejoker.net/yydj5db2ugpm/polteg3d.part17.rar
    https://filejoker.net/3r38o5ypn4jm/polteg3d.part18.rar
    https://filejoker.net/km45aj3n8ika/polteg3d.part19.rar
    https://filejoker.net/tjv3ptxrl606/polteg3d.part20.rar
    https://filejoker.net/300ipuape1na/polteg3d.part21.rar
    https://filejoker.net/gti92t5oyfh9/polteg3d.part22.rar
    https://filejoker.net/cwu1r3xc8vaz/polteg3d.part23.rar
    https://filejoker.net/6l7mlmhsr8a6/polteg3d.part24.rar
    https://filejoker.net/18obb9fezdxr/polteg3d.part25.rar
    https://filejoker.net/kdm90l49wcpk/polteg3d.part26.rar
    https://filejoker.net/y8x0szvdz4j8/polteg3d.part27.rar
    https://filejoker.net/wfmxptr0dhzs/polteg3d.part28.rar
    https://filejoker.net/or5ib1moz2f0/polteg3d.part29.rar
    https://filejoker.net/f6mx03gqgy2e/polteg3d.part30.rar
    https://filejoker.net/j21td8hhbl7q/polteg3d.part31.rar
    https://filejoker.net/aqxjmxaayy0n/polteg3d.part32.rar
    https://filejoker.net/y1thtpth2vkc/polteg3d.part33.rar
    https://filejoker.net/wv14ojc8l5ds/polteg3d.part34.rar
    https://filejoker.net/z5svw5enf29h/polteg3d.part35.rar
    https://filejoker.net/gw7252yfi242/polteg3d.part36.rar
    https://filejoker.net/4oa5gw14zfw7/polteg3d.part37.rar
    https://filejoker.net/wt74p0g1025p/polteg3d.part38.rar
    https://filejoker.net/0h5lv0w41yos/polteg3d.part39.rar
    https://filejoker.net/qx4mv6i98ssq/polteg3d.part40.rar
    https://filejoker.net/1tl446xsye3r/polteg3d.part41.rar
    https://filejoker.net/4vjblwue0blj/polteg3d.part42.rar
    https://filejoker.net/qb3znf4d8rmg/polteg3d.part43.rar
    https://filejoker.net/cj6qltt75isi/polteg3d.part44.rar
    https://filejoker.net/wfg5bv22ovxn/polteg3d.part45.rar
    https://filejoker.net/f9nkvbssrppm/polteg3d.part46.rar
    https://filejoker.net/l9q2qiy87jl9/polteg3d.part47.rar
    https://filejoker.net/rd2hxty4da4g/polteg3d.part48.rar
    https://filejoker.net/e8qnjzo0u72b/polteg3d.part49.rar
    https://filejoker.net/vfy5x5ezkbwv/polteg3d.part50.rar
    https://filejoker.net/v9phf0wlp5ci/polteg3d.part51.rar
    https://filejoker.net/smn1qass1gls/polteg3d.part52.rar
    https://filejoker.net/z2ppny6jzgof/polteg3d.part53.rar
    https://filejoker.net/harf7obsndk9/polteg3d.part54.rar
    https://filejoker.net/umqi9gpgmsa7/polteg3d.part55.rar
    https://filejoker.net/89msfo46kbg7/polteg3d.part56.rar
    https://filejoker.net/9im8cdl00239/polteg3d.part57.rar

      Fecha y hora actual: Miér Dic 13, 2017 9:17 am