JAPAN SUFFERING

EL MEJOR FORO DE DESCARGAS DE MUSICA, JUEGOS Y VIDEOS.

JAPAN SUFFERING FORO DE CALIDAD Y CANTIDAD, SOMOS MAS QUE SOLO UN FORO...

    Resident Evil Retribution (2012)(3D H-SBS 1080p)(Ing-Lat)

    Comparte

    pomposos
    JS Guest
    JS Guest

    Mensajes : 5972
    Reputación : 0
    Fecha de inscripción : 29/10/2013

    Resident Evil Retribution (2012)(3D H-SBS 1080p)(Ing-Lat)

    Mensaje por pomposos el Dom Abr 09, 2017 5:28 pm




    TITULO ORIGINAL: Resident Evil: Retribution (Resident Evil 5)
    ANO: 2012
    DURACION: 95 min.
    PAIS: Canada
    DIRECTOR: Paul W.S. Anderson
    GUION: Paul W.S. Anderson
    REPARTO: Milla Jovovich, Sienna Guillory, Colin Salmon, Michelle Rodriguez, Shawn Roberts, Boris Kodjoe, Johann Urb, Oded Fehr, Kevin Durand, Li Bingbing
    PRODUCTORA: Coproduccion Canada-Alemania
    GENERO: Ciencia ficcion. Accion. Terror | Futuro postapocaliptico. Zombis. Secuela. Videojuego. 3-D
    Código:
    http://www.imdb.com/title/tt1855325/
    Sinopsis: Alice (Milla Jovovich) continua su lucha contra la Umbrella Corporation y sus malvados planes en esta quinta entrega de la franquicia basada en la saga de videojuegos "Resident Evil", que se desarrolla en Tokio. Es secuela de Resident Evil 4: Ultratumba.
    Trailer
    [Tienes que estar registrado y conectado para ver este vínculo]

    Código:

    General
    Format                                  : Matroska
    Format version                          : Version 3 / Version 2
    File size                                : 10.2 GiB
    Duration                                : 1h 35mn
    Overall bit rate                        : 15.3 Mbps
    Encoded date                            : UTC 2012-12-08 16:41:36
    Writing application                      : mkvmerge v5.7.0 (The Whirlwind) built on Jul  8 2012 20:08:51
    Writing library                          : libebml v1.2.3 + libmatroska v1.3.0
    Video
    ID                                      : 1
    Format                                  : AVC
    Format/Info                              : Advanced Video Codec
    Format profile                          : High@L4.1
    MultiView_Count                          : 2
    MultiView_Layout                        : Side by Side (left eye first)
    Format settings, CABAC                  : Yes
    Format settings, ReFrames                : 4 frames
    Codec ID                                : V_MPEG4/ISO/AVC
    Duration                                : 1h 35mn
    Bit rate                                : 12.2 Mbps
    Width                                    : 1 920 pixels
    Height                                  : 1 080 pixels
    Display aspect ratio                    : 16:9
    Frame rate mode                          : Constant
    Frame rate                              : 23.976 fps
    Color space                              : YUV
    Chroma subsampling                      : 4:2:0
    Bit depth                                : 8 bits
    Scan type                                : Progressive
    Bits/(Pixel*Frame)                      : 0.245
    Stream size                              : 8.15 GiB (80%)
    Writing library                          : x264 core 129 r2230 1cffe9f
    Language                                : English
    Default                                  : Yes
    Forced                                  : No
    Audio #1
    ID                                      : 2
    Format                                  : AC-3
    Format/Info                              : Audio Coding 3
    Mode extension                          : CM (complete main)
    Format settings, Endianness              : Big
    Codec ID                                : A_AC3
    Duration                                : 1h 35mn
    Bit rate mode                            : Constant
    Bit rate                                : 640 Kbps
    Channel(s)                              : 6 channels
    Channel positions                        : Front: L C R, Side: L R, LFE
    Sampling rate                            : 48.0 KHz
    Bit depth                                : 16 bits
    Compression mode                        : Lossy
    Stream size                              : 438 MiB (4%)
    Title                                    : AC3 5.1
    Language                                : Spanish
    Default                                  : Yes
    Forced                                  : No
    Audio #2
    ID                                      : 3
    Format                                  : AC-3
    Format/Info                              : Audio Coding 3
    Mode extension                          : CM (complete main)
    Format settings, Endianness              : Big
    Codec ID                                : A_AC3
    Duration                                : 1h 35mn
    Bit rate mode                            : Constant
    Bit rate                                : 640 Kbps
    Channel(s)                              : 6 channels
    Channel positions                        : Front: L C R, Side: L R, LFE
    Sampling rate                            : 48.0 KHz
    Bit depth                                : 16 bits
    Compression mode                        : Lossy
    Stream size                              : 438 MiB (4%)
    Title                                    : AC3 5.1
    Language                                : English
    Default                                  : No
    Forced                                  : No
    Audio #3
    ID                                      : 4
    Format                                  : DTS
    Format/Info                              : Digital Theater Systems
    Mode                                    : 16
    Format settings, Endianness              : Big
    Codec ID                                : A_DTS
    Duration                                : 1h 35mn
    Bit rate mode                            : Constant
    Bit rate                                : 1 509 Kbps
    Channel(s)                              : 6 channels
    Channel positions                        : Front: L C R, Side: L R, LFE
    Sampling rate                            : 48.0 KHz
    Bit depth                                : 24 bits
    Compression mode                        : Lossy
    Stream size                              : 1.01 GiB (10%)
    Title                                    : DTS 5.1
    Language                                : English
    Default                                  : No
    Forced                                  : No
    Text #1
    ID                                      : 5
    Format                                  : UTF-8
    Codec ID                                : S_TEXT/UTF8
    Codec ID/Info                            : UTF-8 Plain Text
    Language                                : Spanish
    Default                                  : No
    Forced                                  : No
    Text #2
    ID                                      : 6
    Format                                  : UTF-8
    Codec ID                                : S_TEXT/UTF8
    Codec ID/Info                            : UTF-8 Plain Text
    Language                                : English
    Default                                  : No
    Forced                                  : No









    Código:

    https://filejoker.net/r7d0me6tuiet/reevere3d.part01.rar
    https://filejoker.net/g425url9gar7/reevere3d.part02.rar
    https://filejoker.net/ltadg7hztolv/reevere3d.part03.rar
    https://filejoker.net/o29r8kf67pgt/reevere3d.part04.rar
    https://filejoker.net/l8wepawn0aky/reevere3d.part05.rar
    https://filejoker.net/tkjvk96j7k6c/reevere3d.part06.rar
    https://filejoker.net/npul78dkxu5q/reevere3d.part07.rar
    https://filejoker.net/5nvqxohje7ef/reevere3d.part08.rar
    https://filejoker.net/1fxaxd8mqw33/reevere3d.part09.rar
    https://filejoker.net/ov9al0cucb7f/reevere3d.part10.rar
    https://filejoker.net/ytlpjzq3y1kr/reevere3d.part11.rar
    https://filejoker.net/dfiuwgw1qwvr/reevere3d.part12.rar
    https://filejoker.net/fawtt206qhbl/reevere3d.part13.rar
    https://filejoker.net/jwuj5uhocbdo/reevere3d.part14.rar
    https://filejoker.net/ov4asw3k4tc0/reevere3d.part15.rar
    https://filejoker.net/84bi27be5wfs/reevere3d.part16.rar
    https://filejoker.net/n0vb0sh80us9/reevere3d.part17.rar
    https://filejoker.net/rse9vh71y7ka/reevere3d.part18.rar
    https://filejoker.net/0nhte8emqul5/reevere3d.part19.rar
    https://filejoker.net/d3ml0n86sgsk/reevere3d.part20.rar
    https://filejoker.net/lhcy64bxe6t8/reevere3d.part21.rar
    https://filejoker.net/92xp6me52gma/reevere3d.part22.rar
    https://filejoker.net/pnobn19rj7f6/reevere3d.part23.rar
    https://filejoker.net/917qrlyplt5c/reevere3d.part24.rar
    https://filejoker.net/sc3bl0jw0fpm/reevere3d.part25.rar
    https://filejoker.net/4l21gx4osngs/reevere3d.part26.rar
    https://filejoker.net/24gkpx1ybrff/reevere3d.part27.rar
    https://filejoker.net/pz09zfzujn6s/reevere3d.part28.rar
    https://filejoker.net/fpvr86r1d31h/reevere3d.part29.rar
    https://filejoker.net/xdrt43qpijiy/reevere3d.part30.rar
    https://filejoker.net/vmseap4868cy/reevere3d.part31.rar
    https://filejoker.net/9wdvj2e7qfus/reevere3d.part32.rar
    https://filejoker.net/pzgg8ts67kcy/reevere3d.part33.rar
    https://filejoker.net/5g3b7ff3lpla/reevere3d.part34.rar
    https://filejoker.net/mutmo8l9z70h/reevere3d.part35.rar
    https://filejoker.net/c2amwis322m5/reevere3d.part36.rar
    https://filejoker.net/hn7hunn2ffxi/reevere3d.part37.rar
    https://filejoker.net/l9zythdpmq4h/reevere3d.part38.rar
    https://filejoker.net/cqdiah2v42nl/reevere3d.part39.rar
    https://filejoker.net/t7jmvkuyltyg/reevere3d.part40.rar
    https://filejoker.net/9sxhq9tdqntb/reevere3d.part41.rar
    https://filejoker.net/m40o38n2xs53/reevere3d.part42.rar

      Fecha y hora actual: Miér Dic 13, 2017 9:16 am