JAPAN SUFFERING

EL MEJOR FORO DE DESCARGAS DE MUSICA, JUEGOS Y VIDEOS.

JAPAN SUFFERING FORO DE CALIDAD Y CANTIDAD, SOMOS MAS QUE SOLO UN FORO...

    Tarzan (2013)(3D H-SBS 1080p)(Ing-Lat)

    Comparte

    pomposos
    JS Guest
    JS Guest

    Mensajes : 5972
    Reputación : 0
    Fecha de inscripción : 29/10/2013

    Tarzan (2013)(3D H-SBS 1080p)(Ing-Lat)

    Mensaje por pomposos el Miér Abr 12, 2017 5:09 pm




    TITULO ORIGINAL: Tarzan
    ANO: 2013
    DURACION: 94 min.
    PAIS: Alemania
    DIRECTOR: Reinhard Klooss
    GUION: Reinhard Klooss, Jessica Postigo, Yoni Brenner (Novela: Edgar Rice Burroughs
    REPARTO: Animation, Kellan Lutz, Spencer Locke
    PRODUCTORA: Constantin Film
    GENERO: Animacion. Aventuras | Tarzan. 3-D
    Código:
    http://www.imdb.com/title/tt1705952/
    Sinopsis: La madre del Presidente Lincoln es asesinada por una criatura sobrenatural, hecho que alimenta su pasion por acabar con los vampiros y todos sus aliados.
    Sinopsis: Nueva version de "Tarzan", mitico personaje literario ideado por Edgar Rice Burroughs. En la pelicula se nos muestra a los padres de Tarzan (Kellan Lutz) como unos millonarios aventureros que fallecen en un accidente de avion, mientras que, de villano del relato, nos encontraremos con el director general de Greystoke Energies, quien se hace con el control de la compania tras la muerte de aquellos. Jane es la hija de un guia de Africa y trabaja para preservar la selva de dicho continente. Por supuesto, se aliara con Tarzan para enfrentarse al ejercito de mercenarios de Greystoke Energies.
    Trailer
    [Tienes que estar registrado y conectado para ver este vínculo]

    Código:

    General
    Format                                  : Matroska
    Format version                          : Version 3 / Version 2
    File size                                : 6.99 GiB
    Duration                                : 1h 34mn
    Overall bit rate                        : 10.6 Mbps
    Encoded date                            : UTC 2014-06-13 02:04:06
    Writing application                      : mkvmerge v5.7.0 (The Whirlwind) built on Jul  8 2012 20:08:51
    Writing library                          : libebml v1.2.3 + libmatroska v1.3.0
    Video
    ID                                      : 1
    Format                                  : AVC
    Format/Info                              : Advanced Video Codec
    Format profile                          : High@L4.1
    MultiView_Count                          : 2
    MultiView_Layout                        : Side by Side (left eye first)
    Format settings, CABAC                  : Yes
    Format settings, ReFrames                : 4 frames
    Muxing mode                              : Header stripping
    Codec ID                                : V_MPEG4/ISO/AVC
    Duration                                : 1h 34mn
    Bit rate                                : 7 625 Kbps
    Width                                    : 1 920 pixels
    Height                                  : 1 080 pixels
    Display aspect ratio                    : 16:9
    Frame rate mode                          : Constant
    Frame rate                              : 23.976 fps
    Color space                              : YUV
    Chroma subsampling                      : 4:2:0
    Bit depth                                : 8 bits
    Scan type                                : Progressive
    Bits/(Pixel*Frame)                      : 0.153
    Stream size                              : 5.01 GiB (72%)
    Writing library                          : x264 core 142 r2389 956c8d8
    Language                                : English
    Default                                  : Yes
    Forced                                  : No
    Audio #1
    ID                                      : 2
    Format                                  : AC-3
    Format/Info                              : Audio Coding 3
    Mode extension                          : CM (complete main)
    Format settings, Endianness              : Big
    Muxing mode                              : Header stripping
    Codec ID                                : A_AC3
    Duration                                : 1h 34mn
    Bit rate mode                            : Constant
    Bit rate                                : 640 Kbps
    Channel(s)                              : 6 channels
    Channel positions                        : Front: L C R, Side: L R, LFE
    Sampling rate                            : 48.0 KHz
    Bit depth                                : 16 bits
    Compression mode                        : Lossy
    Stream size                              : 431 MiB (6%)
    Title                                    : AC3 5.1
    Language                                : Spanish
    Default                                  : Yes
    Forced                                  : No
    Audio #2
    ID                                      : 3
    Format                                  : AC-3
    Format/Info                              : Audio Coding 3
    Mode extension                          : CM (complete main)
    Format settings, Endianness              : Big
    Muxing mode                              : Header stripping
    Codec ID                                : A_AC3
    Duration                                : 1h 34mn
    Bit rate mode                            : Constant
    Bit rate                                : 640 Kbps
    Channel(s)                              : 6 channels
    Channel positions                        : Front: L C R, Side: L R, LFE
    Sampling rate                            : 48.0 KHz
    Bit depth                                : 16 bits
    Compression mode                        : Lossy
    Stream size                              : 431 MiB (6%)
    Title                                    : AC3 5.1
    Language                                : English
    Default                                  : No
    Forced                                  : No
    Audio #3
    ID                                      : 4
    Format                                  : DTS
    Format/Info                              : Digital Theater Systems
    Mode                                    : 16
    Format settings, Endianness              : Big
    Muxing mode                              : Header stripping
    Codec ID                                : A_DTS
    Duration                                : 1h 34mn
    Bit rate mode                            : Constant
    Bit rate                                : 1 509 Kbps
    Channel(s)                              : 6 channels
    Channel positions                        : Front: L C R, Side: L R, LFE
    Sampling rate                            : 48.0 KHz
    Bit depth                                : 24 bits
    Compression mode                        : Lossy
    Delay relative to video                  : 11ms
    Stream size                              : 1 016 MiB (14%)
    Title                                    : DTS 5.1
    Language                                : English
    Default                                  : No
    Forced                                  : No
    Text
    ID                                      : 5
    Format                                  : VobSub
    Muxing mode                              : zlib
    Codec ID                                : S_VOBSUB
    Codec ID/Info                            : The same subtitle format used on DVDs
    Language                                : Spanish
    Default                                  : No
    Forced                                  : No









    Código:

    https://filejoker.net/15i4lm7lf4xs/tzanfd3d.part01.rar
    https://filejoker.net/fr6mbx7a7um0/tzanfd3d.part02.rar
    https://filejoker.net/01cf85piwil3/tzanfd3d.part03.rar
    https://filejoker.net/5zf1igzijhtm/tzanfd3d.part04.rar
    https://filejoker.net/gqrtxwd65mp3/tzanfd3d.part05.rar
    https://filejoker.net/d5m2uq257c9n/tzanfd3d.part06.rar
    https://filejoker.net/ne6gcq9rmjj8/tzanfd3d.part07.rar
    https://filejoker.net/aarx8tg99k3w/tzanfd3d.part08.rar
    https://filejoker.net/pfla7hdyyotu/tzanfd3d.part09.rar
    https://filejoker.net/oxnpz6iy3jp7/tzanfd3d.part10.rar
    https://filejoker.net/74kj7n8sx7qg/tzanfd3d.part11.rar
    https://filejoker.net/c04imxwqkpnv/tzanfd3d.part12.rar
    https://filejoker.net/cehu1z9fgfh4/tzanfd3d.part13.rar
    https://filejoker.net/bt47asvwqyeu/tzanfd3d.part14.rar
    https://filejoker.net/9s5vtuqezy3g/tzanfd3d.part15.rar
    https://filejoker.net/2h6ndzy1hcju/tzanfd3d.part16.rar
    https://filejoker.net/31xtjadp26ni/tzanfd3d.part17.rar
    https://filejoker.net/dwbtlmxdtwt9/tzanfd3d.part18.rar
    https://filejoker.net/x1o75acnmi6y/tzanfd3d.part19.rar
    https://filejoker.net/x62kbu5n0wtz/tzanfd3d.part20.rar
    https://filejoker.net/sfni91wgzjdn/tzanfd3d.part21.rar
    https://filejoker.net/1b752l4ccrzr/tzanfd3d.part22.rar
    https://filejoker.net/jqw6rx9zg9et/tzanfd3d.part23.rar
    https://filejoker.net/nijwke22ue74/tzanfd3d.part24.rar
    https://filejoker.net/8utms1un44vd/tzanfd3d.part25.rar
    https://filejoker.net/r9kyirp0mjga/tzanfd3d.part26.rar
    https://filejoker.net/ncebtzj65w54/tzanfd3d.part27.rar
    https://filejoker.net/ca73dgzobsli/tzanfd3d.part28.rar
    https://filejoker.net/gnxrh1leewtz/tzanfd3d.part29.rar

      Fecha y hora actual: Vie Dic 15, 2017 9:31 pm