JAPAN SUFFERING

EL MEJOR FORO DE DESCARGAS DE MUSICA, JUEGOS Y VIDEOS.

JAPAN SUFFERING FORO DE CALIDAD Y CANTIDAD, SOMOS MAS QUE SOLO UN FORO...

    Step Up Revolution (2012)(3D H-SBS 1080p)(Ing-Lat)

    Comparte

    pomposos
    JS Guest
    JS Guest

    Mensajes : 5972
    Reputación : 0
    Fecha de inscripción : 29/10/2013

    Step Up Revolution (2012)(3D H-SBS 1080p)(Ing-Lat)

    Mensaje por pomposos el Miér Abr 12, 2017 5:21 pm




    TITULO ORIGINAL: Step Up Revolution (Step Up 4)
    ANO: 2012
    DURACION: 99 min.
    PAIS: USA
    DIRECTOR: Scott Speer
    GUION: Jenny Mayer
    REPARTO: Kathryn McCormick, Ryan Guzman, Stephen Boss, Chadd Smith, Megan Boone, Jessica Guadix, Morgane Slemp, Cleopatra Coleman, Tommy Dewey, Tamara Jones
    PRODUCTORA: Summit Entertiainment / Offspring Entertainment
    GENERO: Drama | Secuela. 3-D. Baile
    Código:
    http://www.imdb.com/title/tt1800741/
    Sinopsis: La historia se centra en una joven "nina de papa'", que se enamora del lider de un grupo de baile que organiza flashmobs por amor al arte. Cuando el padre de esta quiere demoler el barrio donde viven los bailarines, la chica insta sus companeros de baile a que utilicen los flashmobs para reivindicar. Nueva entrega de la saga Step Up.
    Trailer
    [Tienes que estar registrado y conectado para ver este vínculo]

    Código:

    General
    Format                          : Matroska
    Format version                  : Version 3 / Version 2
    File size                        : 7.62 GiB
    Duration                        : 1h 38mn
    Overall bit rate                : 11.1 Mbps
    Encoded date                    : UTC 2012-11-10 20:54:59
    Writing application              : mkvmerge v5.7.0 ('The Whirlwind') built on Jul  8 2012 20:08:51
    Writing library                  : libebml v1.2.3 + libmatroska v1.3.0
    Video
    ID                              : 1
    Format                          : AVC
    Format/Info                      : Advanced Video Codec
    Format profile                  : High@L4.1
    MultiView_Count                  : 2
    MultiView_Layout                : Side by Side (left eye first)
    Format settings, CABAC          : Yes
    Format settings, ReFrames        : 4 frames
    Codec ID                        : V_MPEG4/ISO/AVC
    Duration                        : 1h 38mn
    Bit rate                        : 8 044 Kbps
    Width                            : 1 920 pixels
    Height                          : 1 080 pixels
    Display aspect ratio            : 16:9
    Frame rate                      : 23.976 fps
    Color space                      : YUV
    Chroma subsampling              : 4:2:0
    Bit depth                        : 8 bits
    Scan type                        : Progressive
    Bits/(Pixel*Frame)              : 0.162
    Stream size                      : 5.54 GiB (73%)
    Writing library                  : x264 core 128 r2216 198a7ea
    Language                        : English
    Default                          : Yes
    Forced                          : No
    Audio #1
    ID                              : 2
    Format                          : AC-3
    Format/Info                      : Audio Coding 3
    Mode extension                  : CM (complete main)
    Codec ID                        : A_AC3
    Duration                        : 1h 38mn
    Bit rate mode                    : Constant
    Bit rate                        : 640 Kbps
    Channel(s)                      : 6 channels
    Channel positions                : Front: L C R, Side: L R, LFE
    Sampling rate                    : 48.0 KHz
    Bit depth                        : 16 bits
    Compression mode                : Lossy
    Stream size                      : 452 MiB (6%)
    Title                            : AC3 5.1
    Language                        : Spanish
    Default                          : Yes
    Forced                          : No
    Audio #2
    ID                              : 3
    Format                          : AC-3
    Format/Info                      : Audio Coding 3
    Mode extension                  : CM (complete main)
    Codec ID                        : A_AC3
    Duration                        : 1h 38mn
    Bit rate mode                    : Constant
    Bit rate                        : 640 Kbps
    Channel(s)                      : 6 channels
    Channel positions                : Front: L C R, Side: L R, LFE
    Sampling rate                    : 48.0 KHz
    Bit depth                        : 16 bits
    Compression mode                : Lossy
    Stream size                      : 452 MiB (6%)
    Title                            : AC3 5.1
    Language                        : English
    Default                          : No
    Forced                          : No
    Audio #3
    ID                              : 4
    Format                          : DTS
    Format/Info                      : Digital Theater Systems
    Codec ID                        : A_DTS
    Duration                        : 1h 38mn
    Bit rate mode                    : Constant
    Bit rate                        : 1 510 Kbps
    Channel(s)                      : 6 channels
    Channel positions                : Front: L C R, Side: L R, LFE
    Sampling rate                    : 48.0 KHz
    Bit depth                        : 24 bits
    Compression mode                : Lossy
    Stream size                      : 1.04 GiB (14%)
    Title                            : DTS 5.1
    Language                        : English
    Default                          : No
    Forced                          : No
    Text #1
    ID                              : 5
    Format                          : UTF-8
    Codec ID                        : S_TEXT/UTF8
    Codec ID/Info                    : UTF-8 Plain Text
    Language                        : Spanish
    Default                          : No
    Forced                          : No
    Text #2
    ID                              : 6
    Format                          : UTF-8
    Codec ID                        : S_TEXT/UTF8
    Codec ID/Info                    : UTF-8 Plain Text
    Language                        : English
    Default                          : No
    Forced                          : No









    Código:

    https://filejoker.net/hmjz3ht0jew6/strevg3d.part01.rar
    https://filejoker.net/byl8dj739d54/strevg3d.part02.rar
    https://filejoker.net/aqqi0wfygidq/strevg3d.part03.rar
    https://filejoker.net/p67w4he9xt2x/strevg3d.part04.rar
    https://filejoker.net/bgm0r4dc6dd7/strevg3d.part05.rar
    https://filejoker.net/by4xjx0hxf4t/strevg3d.part06.rar
    https://filejoker.net/q5pguqu5utz3/strevg3d.part07.rar
    https://filejoker.net/6m11dagdutcp/strevg3d.part08.rar
    https://filejoker.net/oayiyfrawhml/strevg3d.part09.rar
    https://filejoker.net/ypud8g7bikud/strevg3d.part10.rar
    https://filejoker.net/s7if5lomv1ja/strevg3d.part11.rar
    https://filejoker.net/xlpb1fdvz934/strevg3d.part12.rar
    https://filejoker.net/5xgpsgpbpfzq/strevg3d.part13.rar
    https://filejoker.net/4hvswqaasl5p/strevg3d.part14.rar
    https://filejoker.net/u7nqjhcz8h0k/strevg3d.part15.rar
    https://filejoker.net/te44puidg399/strevg3d.part16.rar
    https://filejoker.net/23wqmlsy61sl/strevg3d.part17.rar
    https://filejoker.net/3xr673fvzxr5/strevg3d.part18.rar
    https://filejoker.net/0aa1amwies4b/strevg3d.part19.rar
    https://filejoker.net/ggvnkggmsomn/strevg3d.part20.rar
    https://filejoker.net/ydqdbsny1nm8/strevg3d.part21.rar
    https://filejoker.net/hez0gf6sr3dn/strevg3d.part22.rar
    https://filejoker.net/3m4ap53p4khs/strevg3d.part23.rar
    https://filejoker.net/q7f7gg9sce52/strevg3d.part24.rar
    https://filejoker.net/gh1iycsfqe8d/strevg3d.part25.rar
    https://filejoker.net/ck161k6ugbd8/strevg3d.part26.rar
    https://filejoker.net/j0lga0i0evk5/strevg3d.part27.rar
    https://filejoker.net/vez5vv15ev5k/strevg3d.part28.rar
    https://filejoker.net/l27nsn457b37/strevg3d.part29.rar
    https://filejoker.net/t2ja8xslqu95/strevg3d.part30.rar
    https://filejoker.net/8wlpzsmb6yu7/strevg3d.part31.rar

      Fecha y hora actual: Vie Dic 15, 2017 9:24 pm