JAPAN SUFFERING

EL MEJOR FORO DE DESCARGAS DE MUSICA, JUEGOS Y VIDEOS.

JAPAN SUFFERING FORO DE CALIDAD Y CANTIDAD, SOMOS MAS QUE SOLO UN FORO...

    Zootopia (2016)(3D H-SBS 1080p)(Ing-Lat)

    Comparte

    pomposos
    JS Guest
    JS Guest

    Mensajes : 5972
    Reputación : 0
    Fecha de inscripción : 29/10/2013

    Zootopia (2016)(3D H-SBS 1080p)(Ing-Lat)

    Mensaje por pomposos el Jue Abr 13, 2017 9:45 pm




    Titulo original: Zootopia
    Ano: 2016
    Duracion: 108 min.
    Pais: Estados Unidos
    Director: Byron Howard, Rich Moore, Jared Bush
    Reparto: Animation
    Productora: Walt Disney Animation Studios
    Genero: Animacion. Comedia. Fantastico | Animales. Policiaco. Buddy Film. 3-D
    Sinopsis: La moderna metropoli mamifera de Zootropolis es una ciudad absolutamente unica. Esta compuesta de barrios con diferentes habitats como la lujosa Sahara Square y la gelida Tundratown. Es un crisol donde los animales de cada entorno conviven, un lugar donde no importa lo que seas. De hecho puedes ser cualquier cosa, desde un elefante enorme hasta la musarana mas diminuta. Pero cuando llega la optimista agente Judy Hopps, descubre que ser la primera conejita de un cuerpo policial compuesto de animales duros y enormes no es nada facil. Pero esta decidida a demostrar su valia y se mete de cabeza en un caso, a pesar de que eso significa trabajar con Nick Wilde, un zorro parlanchin y estafador, para resolver el misterio.
    Trailer
    [Tienes que estar registrado y conectado para ver este vínculo]

    Código:

    General
    Format : Matroska
    Format version : Version 4 / Version 2
    File size : 9.71 GiB
    Duration : 1h 48mn
    Overall bit rate : 12.8 Mbps
    Movie name : Zootopia (2016) 3D H-SBS 1080p BDRip Dual Audio Latino-Ingles
    Encoded date : UTC 2016-06-30 16:22:09
    Writing application : mkvmerge v8.3.0 (Over the Horizon) 64bit
    Writing library : libebml v1.3.1 + libmatroska v1.4.2
    Video
    ID : 1
    Format : AVC
    Format/Info : Advanced Video Codec
    Format profile : High@L4.1
    MultiView_Count : 2
    MultiView_Layout : Side by Side (left eye first)
    Format settings, CABAC : Yes
    Format settings, ReFrames : 5 frames
    Codec ID : V_MPEG4/ISO/AVC
    Duration : 1h 48mn
    Bit rate : 10.0 Mbps
    Width : 1 920 pixels
    Height : 808 pixels
    Display aspect ratio : 2.40:1
    Frame rate mode : Constant
    Frame rate : 23.976 fps
    Color space : YUV
    Chroma subsampling : 4:2:0
    Bit depth : 8 bits
    Scan type : Progressive
    Bits/(Pixel*Frame) : 0.269
    Stream size : 7.40 GiB (76%)
    Title : Zootopia (2016) 3D H-SBS 1080p
    Language : English
    Default : Yes
    Forced : No
    Audio #1
    ID : 2
    Format : AC-3
    Format/Info : Audio Coding 3
    Mode extension : CM (complete main)
    Format settings, Endianness : Big
    Codec ID : A_AC3
    Duration : 1h 48mn
    Bit rate mode : Constant
    Bit rate : 640 Kbps
    Channel(s) : 6 channels
    Channel positions : Front: L C R, Side: L R, LFE
    Sampling rate : 48.0 KHz
    Bit depth : 16 bits
    Compression mode : Lossy
    Stream size : 497 MiB (5%)
    Title : AC3 5.1 del Bluray
    Language : Spanish
    Default : Yes
    Forced : No
    Audio #2
    ID : 3
    Format : DTS
    Format/Info : Digital Theater Systems
    Mode : 16
    Format settings, Endianness : Big
    Codec ID : A_DTS
    Duration : 1h 48mn
    Bit rate mode : Constant
    Bit rate : 1 509 Kbps
    Channel(s) : 6 channels
    Channel positions : Front: L C R, Side: L R, LFE
    Sampling rate : 48.0 KHz
    Bit depth : 24 bits
    Compression mode : Lossy
    Stream size : 1.14 GiB (12%)
    Title : DTS
    Language : English
    Default : No
    Forced : No
    Audio #3
    ID : 4
    Format : AC-3
    Format/Info : Audio Coding 3
    Mode extension : CM (complete main)
    Format settings, Endianness : Big
    Codec ID : A_AC3
    Duration : 1h 48mn
    Bit rate mode : Constant
    Bit rate : 640 Kbps
    Channel(s) : 6 channels
    Channel positions : Front: L C R, Side: L R, LFE
    Sampling rate : 48.0 KHz
    Bit depth : 16 bits
    Compression mode : Lossy
    Stream size : 497 MiB (5%)
    Title : AC3 5.1
    Language : English
    Default : No
    Forced : No
    Text
    ID : 5
    Format : UTF-8
    Codec ID : S_TEXT/UTF8
    Codec ID/Info : UTF-8 Plain Text
    Title : Subt
    Language : Spanish
    Default : No
    Forced : No








    Código:

    https://filejoker.net/0c3nxc5o6cos/zotdop3d.part01.rar
    https://filejoker.net/lnpt86m1gbaj/zotdop3d.part02.rar
    https://filejoker.net/3p2a57t0ke6q/zotdop3d.part03.rar
    https://filejoker.net/isc1bdkh5o8f/zotdop3d.part04.rar
    https://filejoker.net/c0jmh6xmh230/zotdop3d.part05.rar
    https://filejoker.net/uf960mebb7s5/zotdop3d.part06.rar
    https://filejoker.net/0x2lwqjgwnbd/zotdop3d.part07.rar
    https://filejoker.net/51ofv3w5pooq/zotdop3d.part08.rar
    https://filejoker.net/5gi2zbtrftqg/zotdop3d.part09.rar
    https://filejoker.net/7tygyhnbvg9v/zotdop3d.part10.rar
    https://filejoker.net/a5lkf5bkkoia/zotdop3d.part11.rar
    https://filejoker.net/zo5yzlhzytm9/zotdop3d.part12.rar
    https://filejoker.net/5e4zv3o3cnj6/zotdop3d.part13.rar
    https://filejoker.net/xm8i0sfufcvo/zotdop3d.part14.rar
    https://filejoker.net/mea7cl6oswci/zotdop3d.part15.rar
    https://filejoker.net/61ky7jrghr2y/zotdop3d.part16.rar
    https://filejoker.net/urpvntr9d1nd/zotdop3d.part17.rar
    https://filejoker.net/cdgnyrdunh14/zotdop3d.part18.rar
    https://filejoker.net/4tw6orntivk7/zotdop3d.part19.rar
    https://filejoker.net/krto34oychb2/zotdop3d.part20.rar
    https://filejoker.net/axfoqmbcb42t/zotdop3d.part21.rar
    https://filejoker.net/taxsre243u2i/zotdop3d.part22.rar
    https://filejoker.net/4rc24jjml6j4/zotdop3d.part23.rar
    https://filejoker.net/zmpdq4htgotj/zotdop3d.part24.rar
    https://filejoker.net/8k0colmblrhs/zotdop3d.part25.rar
    https://filejoker.net/imb9tfrxnwxo/zotdop3d.part26.rar
    https://filejoker.net/niz9m0n195dw/zotdop3d.part27.rar
    https://filejoker.net/5vioybcxcjvb/zotdop3d.part28.rar
    https://filejoker.net/7gwndk3ksy2j/zotdop3d.part29.rar
    https://filejoker.net/9joj013uvz8n/zotdop3d.part30.rar
    https://filejoker.net/3rvseue20tis/zotdop3d.part31.rar
    https://filejoker.net/o1ae868fjjwz/zotdop3d.part32.rar
    https://filejoker.net/sxmxnoadv31i/zotdop3d.part33.rar
    https://filejoker.net/o05lij9nliwz/zotdop3d.part34.rar
    https://filejoker.net/7jhxbfhyzj5j/zotdop3d.part35.rar
    https://filejoker.net/l9kvv1wamz3f/zotdop3d.part36.rar
    https://filejoker.net/xroqwn6vcyyh/zotdop3d.part37.rar
    https://filejoker.net/bo0k354zxkjj/zotdop3d.part38.rar
    https://filejoker.net/ouuclzknzmoc/zotdop3d.part39.rar
    https://filejoker.net/jxd6czb5h0w3/zotdop3d.part40.rar

      Fecha y hora actual: Vie Dic 15, 2017 9:26 pm