JAPAN SUFFERING

EL MEJOR FORO DE DESCARGAS DE MUSICA, JUEGOS Y VIDEOS.

JAPAN SUFFERING FORO DE CALIDAD Y CANTIDAD, SOMOS MAS QUE SOLO UN FORO...

    Terminator Genisys (2015)(3D H-SBS 1080p)(Ing-Lat)

    Comparte

    pomposos
    JS Guest
    JS Guest

    Mensajes : 4728
    Reputación : 0
    Fecha de inscripción : 29/10/2013

    Terminator Genisys (2015)(3D H-SBS 1080p)(Ing-Lat)

    Mensaje por pomposos el Dom Abr 16, 2017 2:08 pm




    Titulo original: Terminator Genisys
    Ano: 2014
    Duracion: 126 min.
    Pais: Estados Unidos
    Director: Alan Taylor
    Guion: Laeta Kalogridis, Patrick Lussier
    Musica: Lorne Balfe
    Fotografia: Kramer Morgenthau
    Reparto: Emilia Clarke, Arnold Schwarzenegger, Jason Clarke, Jai Courtney, J.K. Simmons, Dayo Okeniyi, Lee Byung-Hun, Matt Smith, Michael Gladis, Sandrine Holt, Natalie Stephany Aguilar, Teri Wyble, Brett Azar, Starlette Miariaunii, Nolan Gross
    Productora: Paramount Pictures / Annapurna Pictures / Skydance Productions
    Genero: Ciencia ficcion. Accion | Robots. Anos 80. Viajes en el tiempo. Secuela
    Sinopsis: Ano 2032. La guerra del futuro se esta librando y un grupo de rebeldes humanos tiene el sistema de inteligencia artificial Skynet contra las cuerdas. John Connor (Jason Clarke) es el lider de la resistencia, y Kyle Reese (Jai Courtney) es su fiel soldado, criado en las ruinas de una postapocaliptica California. Para salvaguardar el futuro, Connor envia a Reese a 1984 para salvar a su madre, Sarah (Emilia Clarke) de un Terminator programado para matarla con el fin de que no llegue a dar a luz a John. Pero lo que Reese encuentra en el otro lado no es como el esperaba...
    Trailer
    [Tienes que estar registrado y conectado para ver este vínculo]

    Código:

    General
    Format : Matroska
    Format version : Version 4 / Version 2
    File size : 10.6 GiB
    Duration : 2h 5mn
    Overall bit rate : 12.1 Mbps
    Encoded date : UTC 2015-09-27 16:14:31
    Writing application : mkvmerge v7.1.0 (Good Love) 64bit built on Jul 27 2014 13:06:55
    Writing library : libebml v1.3.0 + libmatroska v1.4.1
    Video
    ID : 1
    Format : AVC
    Format/Info : Advanced Video Codec
    Format profile : High@L4.1
    Format settings, CABAC : Yes
    Format settings, ReFrames : 5 frames
    Codec ID : V_MPEG4/ISO/AVC
    Duration : 2h 5mn
    Bit rate : 9 318 Kbps
    Width : 1 920 pixels
    Height : 808 pixels
    Display aspect ratio : 2.40:1
    Frame rate mode : Constant
    Frame rate : 23.976 fps
    Color space : YUV
    Chroma subsampling : 4:2:0
    Bit depth : 8 bits
    Scan type : Progressive
    Bits/(Pixel*Frame) : 0.251
    Stream size : 7.97 GiB (75%)
    Writing library : x264 core 148 r2597 e86f3a1
    Language : English
    Default : Yes
    Forced : No
    Audio #1
    ID : 2
    Format : AC-3
    Format/Info : Audio Coding 3
    Mode extension : CM (complete main)
    Format settings, Endianness : Big
    Codec ID : A_AC3
    Duration : 2h 5mn
    Bit rate mode : Constant
    Bit rate : 640 Kbps
    Channel(s) : 6 channels
    Channel positions : Front: L C R, Side: L R, LFE
    Sampling rate : 48.0 KHz
    Bit depth : 16 bits
    Compression mode : Lossy
    Stream size : 575 MiB (5%)
    Title : Terminator: Genisys (2015) - AC3 5.1 - 640 Kbps (Blu-ray)
    Language : Spanish
    Default : Yes
    Forced : No
    Audio #2
    ID : 3
    Format : AC-3
    Format/Info : Audio Coding 3
    Mode extension : CM (complete main)
    Format settings, Endianness : Big
    Codec ID : A_AC3
    Duration : 2h 5mn
    Bit rate mode : Constant
    Bit rate : 640 Kbps
    Channel(s) : 6 channels
    Channel positions : Front: L C R, Side: L R, LFE
    Sampling rate : 48.0 KHz
    Bit depth : 16 bits
    Compression mode : Lossy
    Stream size : 575 MiB (5%)
    Title : Terminator: Genisys (2015) - AC3 5.1 - 640 Kbps
    Language : English
    Default : No
    Forced : No
    Audio #3
    ID : 4
    Format : DTS
    Format/Info : Digital Theater Systems
    Mode : 16
    Format settings, Endianness : Big
    Codec ID : A_DTS
    Duration : 2h 5mn
    Bit rate mode : Constant
    Bit rate : 1 509 Kbps
    Channel(s) : 6 channels
    Channel positions : Front: L C R, Side: L R, LFE
    Sampling rate : 48.0 KHz
    Bit depth : 24 bits
    Compression mode : Lossy
    Stream size : 1.33 GiB (12%)
    Title : Terminator: Genisys (2015) - DTS 5.1 - 1509 Kbps
    Language : English
    Default : No
    Forced : No
    Text
    ID : 5
    Format : UTF-8
    Codec ID : S_TEXT/UTF8
    Codec ID/Info : UTF-8 Plain Text
    Language : Spanish
    Default : No
    Forced : No








    Código:

    https://filejoker.net/beuykytfd5ms/tegenf3d.part01.rar
    https://filejoker.net/g5ltmbyjcipe/tegenf3d.part02.rar
    https://filejoker.net/bh1xbfznu50p/tegenf3d.part03.rar
    https://filejoker.net/y1u9vjxdxw4z/tegenf3d.part04.rar
    https://filejoker.net/r28xo57p41fs/tegenf3d.part05.rar
    https://filejoker.net/sssx797afw5x/tegenf3d.part06.rar
    https://filejoker.net/ovu6p7jti9vh/tegenf3d.part07.rar
    https://filejoker.net/6r4n9k020rcd/tegenf3d.part08.rar
    https://filejoker.net/3id98z8h3mzi/tegenf3d.part09.rar
    https://filejoker.net/ppvbbaxgwa64/tegenf3d.part10.rar
    https://filejoker.net/4s1xt9p4gzyp/tegenf3d.part11.rar
    https://filejoker.net/o193k95y1tth/tegenf3d.part12.rar
    https://filejoker.net/c9hjivoddzdp/tegenf3d.part13.rar
    https://filejoker.net/y489ejcx3a5g/tegenf3d.part14.rar
    https://filejoker.net/9vv4yy1j35oo/tegenf3d.part15.rar
    https://filejoker.net/0tymwplzi3my/tegenf3d.part16.rar
    https://filejoker.net/1wrrhj195760/tegenf3d.part17.rar
    https://filejoker.net/kcv3kobeil3v/tegenf3d.part18.rar
    https://filejoker.net/6uuy87crqs41/tegenf3d.part19.rar
    https://filejoker.net/mtyx90p5z8h6/tegenf3d.part20.rar
    https://filejoker.net/a6xcu0691m27/tegenf3d.part21.rar
    https://filejoker.net/amcbiqeuzo4z/tegenf3d.part22.rar
    https://filejoker.net/iv8u99ibj08f/tegenf3d.part23.rar
    https://filejoker.net/54y5dxj9x5jx/tegenf3d.part24.rar
    https://filejoker.net/p1ag07ja76wq/tegenf3d.part25.rar
    https://filejoker.net/bs1l4ql12bq9/tegenf3d.part26.rar
    https://filejoker.net/m7sx408pt5bh/tegenf3d.part27.rar
    https://filejoker.net/qcl1j3nta8je/tegenf3d.part28.rar
    https://filejoker.net/pcdmivb6yag7/tegenf3d.part29.rar
    https://filejoker.net/ti0yxlcz7qsf/tegenf3d.part30.rar
    https://filejoker.net/xobubs6iu1v0/tegenf3d.part31.rar
    https://filejoker.net/hai47rzilq24/tegenf3d.part32.rar
    https://filejoker.net/peuwciufu58c/tegenf3d.part33.rar
    https://filejoker.net/3u1z3g75ues0/tegenf3d.part34.rar
    https://filejoker.net/ol8c4kafe8zn/tegenf3d.part35.rar
    https://filejoker.net/5q59f1bcibqb/tegenf3d.part36.rar
    https://filejoker.net/ddhy7c1w315c/tegenf3d.part37.rar
    https://filejoker.net/uh6xnf14az1v/tegenf3d.part38.rar
    https://filejoker.net/obo12anv2er9/tegenf3d.part39.rar
    https://filejoker.net/4u8bbaa1tv4n/tegenf3d.part40.rar
    https://filejoker.net/iwvx54jcnh2n/tegenf3d.part41.rar
    https://filejoker.net/bc988xb9g671/tegenf3d.part42.rar
    https://filejoker.net/w3oay4uod8ob/tegenf3d.part43.rar
    https://filejoker.net/0ucbpjsmcdm0/tegenf3d.part44.rar

      Fecha y hora actual: Lun Ago 21, 2017 11:39 pm