JAPAN SUFFERING

EL MEJOR FORO DE DESCARGAS DE MUSICA, JUEGOS Y VIDEOS.

JAPAN SUFFERING FORO DE CALIDAD Y CANTIDAD, SOMOS MAS QUE SOLO UN FORO...

    Carrie (1976)(Full 1080)(Ing-Lat)

    Comparte

    pomposos
    JS Guest
    JS Guest

    Mensajes : 5972
    Reputación : 0
    Fecha de inscripción : 29/10/2013

    Carrie (1976)(Full 1080)(Ing-Lat)

    Mensaje por pomposos el Dom Abr 23, 2017 1:31 pm



    Código:
    http://www.imdb.com/title/tt0074285/

    Titulo original Carrie
    Ano 1976
    Duracion 97 min.
    Pais Estados Unidos
    Director Brian De Palma
    Guion Lawrence D. Cohen (Novela: Stephen King)
    Musica Pino Donaggio
    Fotografia Mario Tosi
    Reparto Sissy Spacek, Piper Laurie, Amy Irving, William Katt, Betty Buckley, Nancy Allen, John Travolta, P.J. Soles, Priscilla Pointer, Sydney Lassick, Stefan Gierasch, Michael Talbott, Doug Cox, Harry Gold, Noelle North, Cindy Daly, Deirdre Berthrong, Anson Downes, Rory Stevens, Edie McClurg
    Productora Redbank Films / United Artists
    Genero Terror. Drama | Drama psicologico. Adolescencia. Colegios & Universidad. Sobrenatural. Pelicula de culto. Acoso escolar. Venganza
    Sinopsis Carrie White, una timida adolescente que vive con su madre, una fanatica religiosa, es objeto de las burlas constantes de sus companeros de instituto. Cuando, en las duchas del gimnasio, la chica sufre un ataque de histeria al tener su primera menstruacion, a una de sus companeras se le ocurre gastarle una broma macabra durante la fiesta de graduacion. Lo que todos ignoran es que Carrie posee poderes telequinesicos. Adaptacion de la novela homonima de Stephen King.
    [Tienes que estar registrado y conectado para ver este vínculo]

    Código:

    Format : Matroska
    Format version : Version 4 / Version 2
    File size : 2.67 GiB
    Duration : 1h 38mn
    Overall bit rate : 3 891 Kbps
    Movie name : Carrie (1976) [FULL 1080p Dual]
    Encoded date : UTC 2013-11-21 17:43:35
    Writing application : mkvmerge v6.0.0 ('Coming Up For Air') built on Jan 20 2013 09:52:00
    Writing library : libebml v1.3.0 + libmatroska v1.4.0
    Video
    ID : 1
    Format : AVC
    Format/Info : Advanced Video Codec
    Format profile : High@L4.1
    Format settings, CABAC : Yes
    Format settings, ReFrames : 2 frames
    Codec ID : V_MPEG4/ISO/AVC
    Duration : 1h 38mn
    Bit rate : 2 918 Kbps
    Width : 1 920 pixels
    Height : 1 080 pixels
    Display aspect ratio : 16:9
    Frame rate mode : Constant
    Frame rate : 23.976 fps
    Color space : YUV
    Chroma subsampling : 4:2:0
    Bit depth : 8 bits
    Scan type : Progressive
    Bits/(Pixel*Frame) : 0.059
    Stream size : 2.00 GiB (75%)
    Writing library : x264 core
    Default : Yes
    Forced : No
    Color primaries : BT.709
    Transfer characteristics : BT.709
    Matrix coefficients : BT.709
    Audio #1
    ID : 2
    Format : AC-3
    Format/Info : Audio Coding 3
    Mode extension : CM (complete main)
    Format settings, Endianness : Big
    Codec ID : A_AC3
    Duration : 1h 38mn
    Bit rate mode : Constant
    Bit rate : 448 Kbps
    Channel count : 6 channels
    Channel positions : Front: L C R, Side: L R, LFE
    Sampling rate : 48.0 KHz
    Bit depth : 16 bits
    Compression mode : Lossy
    Stream size : 315 MiB (12%)
    Title : Audio Latino
    Default : Yes
    Forced : No
    Audio #2
    ID : 3
    Format : AC-3
    Format/Info : Audio Coding 3
    Mode extension : CM (complete main)
    Format settings, Endianness : Big
    Codec ID : A_AC3
    Duration : 1h 38mn
    Bit rate mode : Constant
    Bit rate : 448 Kbps
    Channel count : 6 channels
    Channel positions : Front: L C R, Side: L R, LFE
    Sampling rate : 48.0 KHz
    Bit depth : 16 bits
    Compression mode : Lossy
    Stream size : 315 MiB (12%)
    Title : Audio Ingles
    Default : No
    Forced : No
    Text #1
    ID : 4
    Format : UTF-8
    Codec ID : S_TEXT/UTF8
    Codec ID/Info : UTF-8 Plain Text
    Title : Subtitulos Latino
    Default : No
    Forced : No
    Text #2
    ID : 5
    Format : VobSub
    Muxing mode : zlib
    Codec ID : S_VOBSUB
    Codec ID/Info : The same subtitle format used on DVDs
    Title : Subtitulos Ingles
    Default : No
    Forced : No
    Text #3
    ID : 6
    Format : UTF-8
    Codec ID : S_TEXT/UTF8
    Codec ID/Info : UTF-8 Plain Text
    Default : Yes
    Forced : No








    Código:

    https://filejoker.net/gzu8gjpj13di/carr5sie6cd.part1.rar
    https://filejoker.net/rpguighno2xs/carr5sie6cd.part2.rar
    https://filejoker.net/63sakyfc2zee/carr5sie6cd.part3.rar
    https://filejoker.net/rk2q2h04f77l/carr5sie6cd.part4.rar
    https://filejoker.net/2eufo11fiwv4/carr5sie6cd.part5.rar
    https://filejoker.net/n7h30tj8wy3r/carr5sie6cd.part6.rar

      Fecha y hora actual: Vie Dic 15, 2017 9:46 pm