JAPAN SUFFERING

EL MEJOR FORO DE DESCARGAS DE MUSICA, JUEGOS Y VIDEOS.

JAPAN SUFFERING FORO DE CALIDAD Y CANTIDAD, SOMOS MAS QUE SOLO UN FORO...

    Thor (2011)(3D H-SBS 1080p)(Ing-Lat)

    Comparte

    pomposos
    JS Guest
    JS Guest

    Mensajes : 4742
    Reputación : 0
    Fecha de inscripción : 29/10/2013

    Thor (2011)(3D H-SBS 1080p)(Ing-Lat)

    Mensaje por pomposos el Mar Abr 25, 2017 12:32 pm




    TITULO ORIGINAL: Thor
    ANO: 2011
    DURACION: 130 min.
    PAIS: USA
    DIRECTOR: Kenneth Branagh
    GUION: Mark Protosevich (Personajes: Stan Lee, Jack Kirby)
    REPARTO: Chris Hemsworth, Natalie Portman, Anthony Hopkins, Tom Hiddleston, Stellan Skarsgård, Idris Elba, Kat Dennings, Clark Gregg, Jamie Alexander, Ray Stevenson, Tadanobu Asano, Josh Dallas, Colm Feore, Rene Russo, Samuel L. Jackson
    PRODUCTORA: Marvel Studios / Paramount Pictures
    GENERO: Fantastico. Accion. Aventuras | Mitologia. Superheroes. Comic. Marvel Comics. Cine epico. 3-D
    Código:
    http://www.imdb.com/title/tt0800369/
    Sinopsis: Thor es un arrogante y codicioso guerrero cuyos actos imprudentes reavivan una antigua guerra. Por ese motivo, su padre Odin lo castiga desterrandolo a la Tierra para que viva entre los hombres y descubra asi el verdadero sentido de la humildad. Cuando el villano mas peligroso de su mundo envia a la Tierra a las fuerzas mas oscuras de Asgard, Thor se dara cuenta de lo que realmente hace falta para ser un verdadero heroe.
    Trailer
    [Tienes que estar registrado y conectado para ver este vínculo]

    Código:

    General
    Format                                  : Matroska
    Format version                          : Version 2
    File size                                : 11.1 GiB
    Duration                                : 1h 54mn
    Overall bit rate                        : 13.9 Mbps
    Encoded date                            : UTC 2013-11-22 02:20:08
    Writing application                      : mkvmerge v5.7.0 (The Whirlwind) built on Jul  8 2012 20:08:51
    Writing library                          : libebml v1.2.3 + libmatroska v1.3.0
    Video
    ID                                      : 1
    Format                                  : AVC
    Format/Info                              : Advanced Video Codec
    Format profile                          : High@L4.1
    Format settings, CABAC                  : Yes
    Format settings, ReFrames                : 4 frames
    Codec ID                                : V_MPEG4/ISO/AVC
    Duration                                : 1h 54mn
    Bit rate                                : 12.9 Mbps
    Width                                    : 1 920 pixels
    Height                                  : 1 080 pixels
    Display aspect ratio                    : 16:9
    Frame rate mode                          : Constant
    Frame rate                              : 23.976 fps
    Color space                              : YUV
    Chroma subsampling                      : 4:2:0
    Bit depth                                : 8 bits
    Scan type                                : Progressive
    Bits/(Pixel*Frame)                      : 0.260
    Stream size                              : 10.2 GiB (92%)
    Writing library                          : x264 core 116 r2074 2641b9e
    Language                                : English
    Default                                  : Yes
    Forced                                  : No
    Audio #1
    ID                                      : 2
    Format                                  : AC-3
    Format/Info                              : Audio Coding 3
    Mode extension                          : CM (complete main)
    Format settings, Endianness              : Big
    Codec ID                                : A_AC3
    Duration                                : 1h 54mn
    Bit rate mode                            : Constant
    Bit rate                                : 448 Kbps
    Channel(s)                              : 6 channels
    Channel positions                        : Front: L C R, Side: L R, LFE
    Sampling rate                            : 48.0 KHz
    Bit depth                                : 16 bits
    Compression mode                        : Lossy
    Stream size                              : 368 MiB (3%)
    Title                                    : AC3 5.1
    Language                                : Spanish
    Default                                  : Yes
    Forced                                  : No
    Audio #2
    ID                                      : 3
    Format                                  : AC-3
    Format/Info                              : Audio Coding 3
    Mode extension                          : CM (complete main)
    Format settings, Endianness              : Big
    Codec ID                                : A_AC3
    Duration                                : 1h 54mn
    Bit rate mode                            : Constant
    Bit rate                                : 448 Kbps
    Channel(s)                              : 6 channels
    Channel positions                        : Front: L C R, Side: L R, LFE
    Sampling rate                            : 48.0 KHz
    Bit depth                                : 16 bits
    Compression mode                        : Lossy
    Stream size                              : 368 MiB (3%)
    Title                                    : AC3 5.1
    Language                                : English
    Default                                  : No
    Forced                                  : No
    Text
    ID                                      : 4
    Format                                  : VobSub
    Muxing mode                              : zlib
    Codec ID                                : S_VOBSUB
    Codec ID/Info                            : The same subtitle format used on DVDs
    Language                                : Spanish
    Default                                  : No
    Forced                                  : No








    Código:

    https://filejoker.net/jenpi9fkdvcz/throrf3d.part01.rar
    https://filejoker.net/n6fjd24h4y83/throrf3d.part02.rar
    https://filejoker.net/7mwuslnk8tw8/throrf3d.part03.rar
    https://filejoker.net/zme28ddpx9m0/throrf3d.part04.rar
    https://filejoker.net/9yqpgarf599w/throrf3d.part05.rar
    https://filejoker.net/1sbcopeovgjc/throrf3d.part06.rar
    https://filejoker.net/exsmn2bugdof/throrf3d.part07.rar
    https://filejoker.net/hosjfqd9typ1/throrf3d.part08.rar
    https://filejoker.net/03lddxh3qxs7/throrf3d.part09.rar
    https://filejoker.net/skw78akov5uq/throrf3d.part10.rar
    https://filejoker.net/c4k9wt1xj5ds/throrf3d.part11.rar
    https://filejoker.net/drwjar6is786/throrf3d.part12.rar
    https://filejoker.net/j73napxysbtg/throrf3d.part13.rar

      Fecha y hora actual: Mar Ago 22, 2017 11:20 am