JAPAN SUFFERING

EL MEJOR FORO DE DESCARGAS DE MUSICA, JUEGOS Y VIDEOS.

JAPAN SUFFERING FORO DE CALIDAD Y CANTIDAD, SOMOS MAS QUE SOLO UN FORO...

    Arthur Christmas (2011)(3D H-SBS 1080p)(Ing-Lat)

    Comparte

    pomposos
    JS Guest
    JS Guest

    Mensajes : 5619
    Reputación : 0
    Fecha de inscripción : 29/10/2013

    Arthur Christmas (2011)(3D H-SBS 1080p)(Ing-Lat)

    Mensaje por pomposos el Mar Mayo 02, 2017 1:39 pm




    ORIGINAL TITLE: Arthur Christmas
    YEAR 2011
    DURATION: 100 min.
    COUNTRY: United Kingdom
    DIRECTOR: Sarah Smith, Barry Cook
    SCRIPT: Peter Baynham, Sarah Smith
    CAST: Animation
    PRODUCER: Co-production UK-USA; Aardman Animations / Sony Pictures Imageworks (SPI)
    GENDER: Animation. Comedy. Children | Christmas. 3-D
    Código:
    http://www.imdb.com/title/tt1430607/
    AWARDS: 2011: Golden Globes: Nominated for Best Animated Feature
    2011: Annie Awards: Best dubbing. 6 nominations, including Best Film
    2011: Critics Choice Awards: Nominated for Best Animated Feature
    2011: BAFTA Awards: Nominated for Best Animated Feature
    Synopsis: Santa Claus believes that his reign is coming to an end and that it is approaching and when it comes to retiring. He is confident that his son Steven, who is very efficient and responsible, though not very cheerful, is prepared to take over immediately. However, that Christmas is a problem: one of the 600 million children that had to visit is left without his gift.
    Trailer
    [Tienes que estar registrado y conectado para ver este vínculo]

    Código:

    General
    Format Matroska
    Format version Version 3 / Version 2
    File size 8.87 GiB
    Duration 1h 37mn
    Overall bit rate 13.0 Mbps
    Encoded date UTC 2012-10-21 05:05:06
    Writing application mkvmerge v5.7.0 ('The Whirlwind') built on Jul  8 2012 20:08:51
    Writing library libebml v1.2.3 + libmatroska v1.3.0
    Video
    ID 1
    Format AVC
    Format/Info Advanced Video Codec
    Format profile High@L4.1
    MultiView_Count 2
    MultiView_Layout Side by Side (left eye first)
    Format settings, CABAC Yes
    Format settings, ReFrames 4 frames
    Codec ID V_MPEG4/ISO/AVC
    Duration 1h 37mn
    Bit rate 9 968 Kbps
    Width 1 920 pixels
    Height 1 080 pixels
    Display aspect ratio 16:9
    Frame rate  23.976 fps
    Color space YUV
    Chroma subsampling 4:2:0
    Bit depth 8 bits
    Scan type Progressive
    Bits/(Pixel*Frame) 0.200
    Stream size                      : 6.79 GiB (77%)
    Writing library                  : x264 core 125 r2208 d9d2288
    Language                        : English
    Default                          : Yes
    Forced                          : No
    Audio #1
    ID                              : 2
    Format                          : AC-3
    Format/Info                      : Audio Coding 3
    Mode extension                  : CM (complete main)
    Codec ID                        : A_AC3
    Duration                        : 1h 37mn
    Bit rate mode                    : Constant
    Bit rate                        : 640 Kbps
    Channel(s)                      : 6 channels
    Channel positions                : Front: L C R, Side: L R, LFE
    Sampling rate                    : 48.0 KHz
    Bit depth                        : 16 bits
    Compression mode                : Lossy
    Stream size                      : 447 MiB (5%)
    Title                            : AC3 5.1
    Language                        : Spanish
    Default                          : Yes
    Forced                          : No
    Audio #2
    ID                              : 3
    Format                          : AC-3
    Format/Info                      : Audio Coding 3
    Mode extension                  : CM (complete main)
    Codec ID                        : A_AC3
    Duration                        : 1h 37mn
    Bit rate mode                    : Constant
    Bit rate                        : 640 Kbps
    Channel(s)                      : 6 channels
    Channel positions                : Front: L C R, Side: L R, LFE
    Sampling rate                    : 48.0 KHz
    Bit depth                        : 16 bits
    Compression mode                : Lossy
    Stream size                      : 447 MiB (5%)
    Title                            : AC3 5.1
    Language                        : English
    Default                          : No
    Forced                          : No
    Audio #3
    ID                              : 4
    Format                          : DTS
    Format/Info                      : Digital Theater Systems
    Codec ID                        : A_DTS
    Duration                        : 1h 37mn
    Bit rate mode                    : Constant
    Bit rate                        : 1 510 Kbps
    Channel(s)                      : 6 channels
    Channel positions                : Front: L C R, Side: L R, LFE
    Sampling rate                    : 48.0 KHz
    Bit depth                        : 24 bits
    Compression mode                : Lossy
    Stream size                      : 1.03 GiB (12%)
    Title                            : DTS 5.1
    Language                        : English
    Default                          : No
    Forced                          : No
    Text #1
    ID                              : 5
    Format                          : UTF-8
    Codec ID                        : S_TEXT/UTF8
    Codec ID/Info                    : UTF-8 Plain Text
    Language                        : Spanish
    Default                          : No
    Forced                          : No
    Text #2
    ID                              : 6
    Format                          : UTF-8
    Codec ID                        : S_TEXT/UTF8
    Codec ID/Info                    : UTF-8 Plain Text
    Language                        : English
    Default                          : No
    Forced                          : No






    Código:

    https://filejoker.net/b18cvw01558l/archt3dfc.part01.rar
    https://filejoker.net/lzlr7nfy13ru/archt3dfc.part02.rar
    https://filejoker.net/a886cmjgw38u/archt3dfc.part03.rar
    https://filejoker.net/twufl3baao7q/archt3dfc.part04.rar
    https://filejoker.net/k4s491si5cay/archt3dfc.part05.rar
    https://filejoker.net/ndaxmk1kp5me/archt3dfc.part06.rar
    https://filejoker.net/4xhtgm0wyke5/archt3dfc.part07.rar
    https://filejoker.net/i4zmv3omnu3n/archt3dfc.part08.rar
    https://filejoker.net/o0rree83bk04/archt3dfc.part09.rar
    https://filejoker.net/lenq57v8xsj4/archt3dfc.part10.rar
    https://filejoker.net/axbyvvjokee2/archt3dfc.part11.rar
    https://filejoker.net/wumxac49of9n/archt3dfc.part12.rar
    https://filejoker.net/ze4miq0psie5/archt3dfc.part13.rar
    https://filejoker.net/8iv4dmiirmn0/archt3dfc.part14.rar
    https://filejoker.net/hbm6j6bogoh3/archt3dfc.part15.rar
    https://filejoker.net/x6cjj3aqkwb7/archt3dfc.part16.rar
    https://filejoker.net/kjir1v8cr1iq/archt3dfc.part17.rar
    https://filejoker.net/t1o71kpelnir/archt3dfc.part18.rar
    https://filejoker.net/06c7dylkebkv/archt3dfc.part19.rar

      Fecha y hora actual: Mar Oct 17, 2017 4:47 pm