JAPAN SUFFERING

EL MEJOR FORO DE DESCARGAS DE MUSICA, JUEGOS Y VIDEOS.

JAPAN SUFFERING FORO DE CALIDAD Y CANTIDAD, SOMOS MAS QUE SOLO UN FORO...

    Brave (2012)(3D H-SBS 1080p)(Ing-Lat)

    Comparte

    pomposos
    JS Guest
    JS Guest

    Mensajes : 5972
    Reputación : 0
    Fecha de inscripción : 29/10/2013

    Brave (2012)(3D H-SBS 1080p)(Ing-Lat)

    Mensaje por pomposos el Vie Mayo 05, 2017 12:01 pm




    TITULO ORIGINAL: Brave
    ANO: 2012
    DURACION: 100 min.
    PAIS: USA
    DIRECTOR: Mark Andrews, Brenda Chapman, Steve Purcell
    GUION: Mark Andrews, Steve Purcell, Brenda Chapman, Irene Mecchi (Historia: Brenda Chapman)
    REPARTO: Animation
    PRODUCTORA: Pixar Animation Studios / Walt Disney Pictures
    GENERO: Animacion. Aventuras. Fantastico. Comedia | Fantasia medieval. Cine familiar. 3-D
    Código:
    http://www.imdb.com/title/tt1217209/
    Sinopsis: Merida, la indomita hija del Rey Fergus y de la Reina Elinor, es una habil arquera que decide romper con una antigua costumbre, que es sagrada para los senores de la tierra: el gigantesco Lord MacGuffin, el malhumorado Lord Macintosh y el cascarrabias Lord Dingwall. Las acciones de Merida desencadenan el caos y la furia en el reino. Ademas, pide ayuda a una sabia anciana que le concede un deseo muy desafortunado. La muchacha tendra que afrontar grandes peligros antes de aprender que es la autentica valentia.
    Trailer
    [Tienes que estar registrado y conectado para ver este vínculo]


    General
    Format : Matroska
    Format version : Version 2
    File size : 9.01 GiB
    Duration : 1h 34mn
    Overall bit rate mode : Variable
    Overall bit rate : 13.7 Mbps
    Encoded date : UTC 2012-11-04 17:54:18
    Writing application : mkvmerge v5.7.0 (The Whirlwind) built on Jul 8 2012 20:08:51
    Writing library : libebml v1.2.3 + libmatroska v1.3.0
    Video
    ID : 1
    Format : AVC
    Format/Info : Advanced Video Codec
    Format profile : High@L4.1
    Format settings, CABAC : Yes
    Format settings, ReFrames : 2 frames
    Codec ID : V_MPEG4/ISO/AVC
    Duration : 1h 34mn
    Width : 1 920 pixels
    Height : 802 pixels
    Display aspect ratio : 2.40:1
    Frame rate : 23.976 fps
    Color space : YUV
    Chroma subsampling : 4:2:0
    Bit depth : 8 bits
    Scan type : Progressive
    Writing library : x264 core
    Language : English
    Default : Yes
    Forced : No
    Color primaries : BT.709-5, BT.1361, IEC 61966-2-4, SMPTE RP177
    Transfer characteristics : BT.709-5, BT.1361
    Matrix coefficients : BT.709-5, BT.1361, IEC 61966-2-4 709, SMPTE RP177
    Audio #1
    ID : 2
    Format : AC-3
    Format/Info : Audio Coding 3
    Mode extension : CM (complete main)
    Codec ID : A_AC3
    Duration : 1h 34mn
    Bit rate mode : Constant
    Bit rate : 640 Kbps
    Channel(s) : 6 channels
    Channel positions : Front: L C R, Side: L R, LFE
    Sampling rate : 48.0 KHz
    Bit depth : 16 bits
    Compression mode : Lossy
    Stream size : 431 MiB (5%)
    Title : AC3 5.1
    Language : Spanish
    Default : Yes
    Forced : No
    Audio #2
    ID : 3
    Format : AC-3
    Format/Info : Audio Coding 3
    Mode extension : CM (complete main)
    Codec ID : A_AC3
    Duration : 1h 34mn
    Bit rate mode : Constant
    Bit rate : 640 Kbps
    Channel(s) : 6 channels
    Channel positions : Front: L C R, Side: L R, LFE
    Sampling rate : 48.0 KHz
    Bit depth : 16 bits
    Compression mode : Lossy
    Stream size : 431 MiB (5%)
    Title : AC3 5.1
    Language : English
    Default : No
    Forced : No
    Audio #3
    ID : 4
    Format : TrueHD
    Codec ID : A_TRUEHD
    Duration : 1h 34mn
    Bit rate mode : Variable
    Maximum bit rate : 8 373 Kbps
    Channel(s) : 8 channels
    Channel positions : Front: L C R, Side: L R, Back: L R, LFE
    Sampling rate : 48.0 KHz
    Compression mode : Lossless
    Title : TrueHD 7.1
    Language : English
    Default : No
    Forced : No
    Text #1
    ID : 5
    Format : UTF-8
    Codec ID : S_TEXT/UTF8
    Codec ID/Info : UTF-8 Plain Text
    Language : Spanish
    Default : No
    Forced : No
    Text #2
    ID : 6
    Format : UTF-8
    Codec ID : S_TEXT/UTF8
    Codec ID/Info : UTF-8 Plain Text
    Language : English
    Default : No
    Forced : No







    Código:

    https://filejoker.net/1vwjc72towf2/basv3dc1fb.part01.rar
    https://filejoker.net/23k8w7z6rmmp/basv3dc1fb.part02.rar
    https://filejoker.net/xkl35uo9pw1w/basv3dc1fb.part03.rar
    https://filejoker.net/lyxkdxivdwmy/basv3dc1fb.part04.rar
    https://filejoker.net/gefedfwrqqw5/basv3dc1fb.part05.rar
    https://filejoker.net/lrmr2e8y0ep7/basv3dc1fb.part06.rar
    https://filejoker.net/1q3qdg5oexea/basv3dc1fb.part07.rar
    https://filejoker.net/usoqk4yc2bvj/basv3dc1fb.part08.rar
    https://filejoker.net/6nn9ipez0fup/basv3dc1fb.part09.rar
    https://filejoker.net/ny834x5oay7b/basv3dc1fb.part10.rar
    https://filejoker.net/4l7v5ct9dqek/basv3dc1fb.part11.rar
    https://filejoker.net/w5y3o5sd2ua9/basv3dc1fb.part12.rar
    https://filejoker.net/yjb5flc3ubnj/basv3dc1fb.part13.rar
    https://filejoker.net/rx1h5z2py08w/basv3dc1fb.part14.rar
    https://filejoker.net/vkgu5woyajkf/basv3dc1fb.part15.rar
    https://filejoker.net/jwsexs3qigr2/basv3dc1fb.part16.rar
    https://filejoker.net/yi7lz8tbqwc7/basv3dc1fb.part17.rar
    https://filejoker.net/v2v254urh3mi/basv3dc1fb.part18.rar
    https://filejoker.net/veya55hhmsks/basv3dc1fb.part19.rar

      Fecha y hora actual: Vie Dic 15, 2017 9:22 pm