JAPAN SUFFERING

EL MEJOR FORO DE DESCARGAS DE MUSICA, JUEGOS Y VIDEOS.

JAPAN SUFFERING FORO DE CALIDAD Y CANTIDAD, SOMOS MAS QUE SOLO UN FORO...

    Captain America The Winter Soldier (2014)(3D H-SBS 1080p)(Ing-Lat)

    Comparte

    pomposos
    JS Guest
    JS Guest

    Mensajes : 5632
    Reputación : 0
    Fecha de inscripción : 29/10/2013

    Captain America The Winter Soldier (2014)(3D H-SBS 1080p)(Ing-Lat)

    Mensaje por pomposos el Sáb Mayo 06, 2017 3:53 pm




    Titulo original Captain America: The Winter Soldier (Captain America 2)
    Ano 2014
    Duracion 128 min.
    Pais Estados Unidos
    Director Anthony Russo, Joe Russo
    Código:
    http://www.imdb.com/title/tt1843866
    Guion Christopher Markus, Stephen McFeely (Comic: Joe Simon, Jack Kirby)
    Musica Henry Jackman
    Fotografia Trent Opaloch
    Reparto Chris Evans, Scarlett Johansson, Samuel L. Jackson, Robert Redford, Toby Jones, Cobie Smulders, Emily VanCamp, Anthony Mackie, Sebastian Stan, Frank Grillo, Hayley Atwell, Georges St-Pierre, Maximiliano Hernandez, Pat Healy, Stan Lee, Callan Mulvey, Thomas Kretschmann
    Productora Marvel Studios / Marvel Entertainment / Sony Pictures Imageworks (SPI)
    Genero Accion | Espionaje. Superheroes. Comic. Marvel Comics. Secuela. 3-D
    Sinopsis Tras los devastadores acontecimientos acaecidos en Nueva York con Los Vengadores, Steve Rogers, alias el Capitan America, vive tranquilamente en Washington D.C. intentando adaptarse al mundo moderno. Pero cuando atacan a un colega de S.H.I.E.L.D., Steve se ve envuelto en una trama de intrigas que representa una amenaza para el mundo. Se unira entonces a la Viuda Negra para desenmascarar a los conspiradores. Cuando por fin descubren la magnitud de la trama, se unira a ellos el Halcon. Los tres tendran que enfrentarse a un enemigo inesperado y extraordinario: el Soldado de Invierno.
    [Tienes que estar registrado y conectado para ver este vínculo]


    General
    Format : Matroska
    Format version : Version 4 / Version 2
    File size : 14.1 GiB
    Duration : 2h 15mn
    Overall bit rate : 14.9 Mbps
    Encoded date : UTC 2014-08-12 16:17:38
    Writing application : mkvmerge v6.8.0 ('Theme for Great Cities') 64bit built on Mar 2 2014 21:34:26
    Writing library : libebml v1.3.0 + libmatroska v1.4.1
    Video
    ID : 1
    Format : AVC
    Format/Info : Advanced Video Codec
    Format profile : High@L4.1
    MultiView_Count : 2
    MultiView_Layout : Side by Side (left eye first)
    Format settings, CABAC : Yes
    Format settings, ReFrames : 4 frames
    Codec ID : V_MPEG4/ISO/AVC
    Duration : 2h 15mn
    Bit rate : 11.8 Mbps
    Width : 1 920 pixels
    Height : 1 080 pixels
    Display aspect ratio : 16:9
    Frame rate mode : Constant
    Frame rate : 23.976 fps
    Color space : YUV
    Chroma subsampling : 4:2:0
    Bit depth : 8 bits
    Scan type : Progressive
    Bits/(Pixel*Frame) : 0.237
    Stream size : 11.2 GiB (79%)
    Writing library : x264 core 142 r2389 956c8d8
    Language : English
    Default : Yes
    Forced : No
    Audio #1
    ID : 2
    Format : AC-3
    Format/Info : Audio Coding 3
    Mode extension : CM (complete main)
    Format settings, Endianness : Big
    Codec ID : A_AC3
    Duration : 2h 15mn
    Bit rate mode : Constant
    Bit rate : 640 Kbps
    Channel(s) : 6 channels
    Channel positions : Front: L C R, Side: L R, LFE
    Sampling rate : 48.0 KHz
    Bit depth : 16 bits
    Compression mode : Lossy
    Stream size : 622 MiB (4%)
    Title : AC3 5.1 (Audio Blu-Ray)
    Language : Spanish
    Default : Yes
    Forced : No
    Audio #2
    ID : 3
    Format : AC-3
    Format/Info : Audio Coding 3
    Mode extension : CM (complete main)
    Format settings, Endianness : Big
    Codec ID : A_AC3
    Duration : 2h 15mn
    Bit rate mode : Constant
    Bit rate : 640 Kbps
    Channel(s) : 6 channels
    Channel positions : Front: L C R, Side: L R, LFE
    Sampling rate : 48.0 KHz
    Bit depth : 16 bits
    Compression mode : Lossy
    Stream size : 622 MiB (4%)
    Title : AC3 5.1
    Language : English
    Default : No
    Forced : No
    Audio #3
    ID : 4
    Format : DTS
    Format/Info : Digital Theater Systems
    Mode : 16
    Format settings, Endianness : Big
    Codec ID : A_DTS
    Duration : 2h 15mn
    Bit rate mode : Constant
    Bit rate : 1 509 Kbps
    Channel(s) : 6 channels
    Channel positions : Front: L C R, Side: L R, LFE
    Sampling rate : 48.0 KHz
    Bit depth : 24 bits
    Compression mode : Lossy
    Stream size : 1.43 GiB (10%)
    Title : DTS 5.1
    Language : English
    Default : No
    Forced : No
    Text #1
    ID : 5
    Format : VobSub
    Muxing mode : zlib
    Codec ID : S_VOBSUB
    Codec ID/Info : The same subtitle format used on DVDs
    Title : Forzados
    Language : Latin
    Default : Yes
    Forced : No
    Text #2
    ID : 6
    Format : VobSub
    Muxing mode : zlib
    Codec ID : S_VOBSUB
    Codec ID/Info : The same subtitle format used on DVDs
    Title : Completos
    Language : Latin
    Default : No
    Forced : No







    Código:

    https://filejoker.net/12tpqm3ivmyz/cainsol3dfc1.part01.rar
    https://filejoker.net/mxm60vffcrcq/cainsol3dfc1.part02.rar
    https://filejoker.net/rdhuughm0z3n/cainsol3dfc1.part03.rar
    https://filejoker.net/lsv2zopynfmh/cainsol3dfc1.part04.rar
    https://filejoker.net/8ydgrmbk3qby/cainsol3dfc1.part05.rar
    https://filejoker.net/4xbjw3uofu7u/cainsol3dfc1.part06.rar
    https://filejoker.net/dmu1yvtqvgri/cainsol3dfc1.part07.rar
    https://filejoker.net/dm73jq16dkh3/cainsol3dfc1.part08.rar
    https://filejoker.net/d7rf2dx5upxp/cainsol3dfc1.part09.rar
    https://filejoker.net/ez76i6x4jywt/cainsol3dfc1.part10.rar
    https://filejoker.net/41ggqdtqtsij/cainsol3dfc1.part11.rar
    https://filejoker.net/pmo3vqljz9vs/cainsol3dfc1.part12.rar
    https://filejoker.net/fn14z5p8rxjh/cainsol3dfc1.part13.rar
    https://filejoker.net/z8p6emvwbd2x/cainsol3dfc1.part14.rar
    https://filejoker.net/snmes92n7rs4/cainsol3dfc1.part15.rar
    https://filejoker.net/fdj2qyph5hk6/cainsol3dfc1.part16.rar
    https://filejoker.net/vazowzjr78wi/cainsol3dfc1.part17.rar
    https://filejoker.net/1g5etb1n438t/cainsol3dfc1.part18.rar
    https://filejoker.net/cde4ewgis2ct/cainsol3dfc1.part19.rar
    https://filejoker.net/yxx6adblh9gr/cainsol3dfc1.part20.rar
    https://filejoker.net/7lapn61p74yr/cainsol3dfc1.part21.rar
    https://filejoker.net/7sg3aipq1ooz/cainsol3dfc1.part22.rar
    https://filejoker.net/q0k6n28yh9lk/cainsol3dfc1.part23.rar
    https://filejoker.net/ppr6z902fqve/cainsol3dfc1.part24.rar
    https://filejoker.net/pfo49x8qqgjr/cainsol3dfc1.part25.rar
    https://filejoker.net/i6ow8t7tu698/cainsol3dfc1.part26.rar
    https://filejoker.net/vpeakp60qmcl/cainsol3dfc1.part27.rar
    https://filejoker.net/erkz8uofuekj/cainsol3dfc1.part28.rar
    https://filejoker.net/lencizwerx3c/cainsol3dfc1.part29.rar

      Fecha y hora actual: Vie Oct 20, 2017 5:18 am