JAPAN SUFFERING

EL MEJOR FORO DE DESCARGAS DE MUSICA, JUEGOS Y VIDEOS.

JAPAN SUFFERING FORO DE CALIDAD Y CANTIDAD, SOMOS MAS QUE SOLO UN FORO...

    Top Gun (1986)(3D H-SBS 1080p)(Ing-Lat)

    Comparte

    pomposos
    JS Guest
    JS Guest

    Mensajes : 5619
    Reputación : 0
    Fecha de inscripción : 29/10/2013

    Top Gun (1986)(3D H-SBS 1080p)(Ing-Lat)

    Mensaje por pomposos el Vie Mayo 19, 2017 1:02 pm




    TITULO ORIGINAL: Top Gun
    ANO: 1986
    DURACION: 110 min.
    PAIS: USA
    DIRECTOR: Tony Scott
    GUION: Jim Cash, Jack Epps Jr.
    REPARTO: Tom Cruise, Kelly McGillis, Tom Skerritt, Anthony Edwards, Val Kilmer, Meg Ryan, Michael Ironside, John Stockwell, Rick Rossovich, Tim Robbins
    PRODUCTORA: Paramount Pictures
    GENERO: Accion. Drama. Romance | Aviones. Ejercito
    Sinopsis: La Marina de los Estados Unidos ha creado una escuela de elite para pilotos con el fin de sacar una promocion de expertos en tecnicas de combate. En la academia, mas conocida como Top Gun, a los mejores se les entrena para ser intrepidos y frios al mismo tiempo, capaces de no perder los nervios en situaciones extremas y de no inmutarse al romper la barrera del sonido a los mandos de un F-14. A la escuela llega el joven Maverick, famoso por su temeraria aunque brillante forma de pilotar.
    Código:
    http://www.imdb.es/title/tt0092099/
    Trailer
    [Tienes que estar registrado y conectado para ver este vínculo]


    General
    Format : Matroska
    Format version : Version 2
    File size : 10.1 GiB
    Duration : 1h 51mn
    Overall bit rate : 13.1 Mbps
    Encoded date : UTC 2013-02-13 00:36:29
    Writing application : mkvmerge v5.7.0 (The Whirlwind) built on Jul 8 2012 20:08:51
    Writing library : libebml v1.2.3 + libmatroska v1.3.0
    Video
    ID : 1
    Format : AVC
    Format/Info : Advanced Video Codec
    Format profile : High@L4.1
    Format settings, CABAC : Yes
    Format settings, ReFrames : 2 frames
    Codec ID : V_MPEG4/ISO/AVC
    Duration : 1h 51mn
    Bit rate : 10.0 Mbps
    Width : 1 920 pixels
    Height : 1 080 pixels
    Display aspect ratio : 16:9
    Frame rate mode : Constant
    Frame rate : 23.976 fps
    Color space : YUV
    Chroma subsampling : 4:2:0
    Bit depth : 8 bits
    Scan type : Progressive
    Bits/(Pixel*Frame) : 0.202
    Stream size : 7.78 GiB (77%)
    Writing library : x264 core
    Language : English
    Default : Yes
    Forced : No
    Color primaries : BT.709
    Transfer characteristics : BT.709
    Matrix coefficients : BT.709
    Audio #1
    ID : 2
    Format : AC-3
    Format/Info : Audio Coding 3
    Mode extension : CM (complete main)
    Format settings, Endianness : Big
    Codec ID : A_AC3
    Duration : 1h 51mn
    Bit rate mode : Constant
    Bit rate : 640 Kbps
    Channel(s) : 6 channels
    Channel positions : Front: L C R, Side: L R, LFE
    Sampling rate : 48.0 KHz
    Bit depth : 16 bits
    Compression mode : Lossy
    Stream size : 508 MiB (5%)
    Title : AC3 5.1
    Language : Spanish
    Default : Yes
    Forced
    Audio #2
    ID : 3
    Format : AC-3
    Format/Info : Audio Coding 3
    Mode extension : CM (complete main)
    Format settings, Endianness : Big
    Codec ID : A_AC3
    Duration : 1h 51mn
    Bit rate mode : Constant
    Bit rate : 640 Kbps
    Channel(s) : 6 channels
    Channel positions : Front: L C R, Side: L R, LFE
    Sampling rate : 48.0 KHz
    Bit depth : 16 bits
    Compression mode : Lossy
    Stream size : 508 MiB (5%)
    Title : AC3 5.1
    Language : English
    Default : No
    Forced : No
    Audio #3
    ID : 4
    Format : DTS
    Format/Info : Digital Theater Systems
    Format profile : ES
    Mode : 16
    Format settings, Endianness : Big
    Codec ID : A_DTS
    Duration : 1h 51mn
    Bit rate mode : Constant
    Bit rate : 1 509 Kbps
    Channel(s) : 7 channels / 6 channels
    Channel positions : Front: L C R, Side: L R, Back: C, LFE / Front: L C R, Side: L R, LFE
    Sampling rate : 48.0 KHz
    Bit depth : 24 bits
    Compression mode : Lossy
    Stream size : 1.17 GiB (12%)
    Title : DTS 5.1
    Language : English
    Default : No
    Forced : No
    Text
    ID : 5
    Format : UTF-8
    Codec ID : S_TEXT/UTF8
    Codec ID/Info : UTF-8 Plain Text
    Language : Spanish
    Default : No
    Forced : No







    Código:

    https://filejoker.net/93ju0fumjwod/tpg3d5fv.part01.rar
    https://filejoker.net/t213vlpeatl5/tpg3d5fv.part02.rar
    https://filejoker.net/i9razjhcsrff/tpg3d5fv.part03.rar
    https://filejoker.net/29ow0grl4tj6/tpg3d5fv.part04.rar
    https://filejoker.net/myxy5whtrcml/tpg3d5fv.part05.rar
    https://filejoker.net/fx8fziogqm8n/tpg3d5fv.part06.rar
    https://filejoker.net/mjyscxsht7hf/tpg3d5fv.part07.rar
    https://filejoker.net/hyxeit2k05l6/tpg3d5fv.part08.rar
    https://filejoker.net/xwiyjyo3s93c/tpg3d5fv.part09.rar
    https://filejoker.net/3isl7aupmad6/tpg3d5fv.part10.rar
    https://filejoker.net/lqnnzjkhv3zt/tpg3d5fv.part11.rar

      Fecha y hora actual: Mar Oct 17, 2017 4:48 pm