JAPAN SUFFERING

EL MEJOR FORO DE DESCARGAS DE MUSICA, JUEGOS Y VIDEOS.

JAPAN SUFFERING FORO DE CALIDAD Y CANTIDAD, SOMOS MAS QUE SOLO UN FORO...

    Batman V Superman Dawn of Justice (2016)(3D H-SBS 1080p)(Ing-Lat)

    Comparte

    pomposos
    JS Guest
    JS Guest

    Mensajes : 5619
    Reputación : 0
    Fecha de inscripción : 29/10/2013

    Batman V Superman Dawn of Justice (2016)(3D H-SBS 1080p)(Ing-Lat)

    Mensaje por pomposos el Dom Mayo 21, 2017 2:37 pm




    TITULO ORIGINAL: Batman v. Superman: Dawn of Justice
    ANO: 2016
    DURACION: 153 min.
    Pais: Estados Unidos
    DIRECTOR: Zack Snyder
    GUION: David S. Goyer, Chris Terrio (Historia: David S. Goyer, Zack Snyder)
    MUSICA: Hans Zimmer, Junkie XL
    FOTOGRAFIA: Larry Fong
    REPARTO: Ben Affleck, Henry Cavill, Amy Adams, Jesse Eisenberg, Gal Gadot, Diane Lane, Laurence Fishburne, Jeremy Irons, Holly Hunter, Scoot McNairy, Callan Mulvey, Tao Okamoto, Brandon Spink, Lauren Cohan, Michael Shannon, Hugh Maguire, Jason Momoa, Ezra Miller, Ray Fisher
    PRODUCTORA: Warner Bros. Pictures / DC Entertainment / Dune Entertainment
    GENERO: Fantastico. Accion. Ciencia ficcion | Superheroes. Comic. DC Comics. 3-D
    Sinopsis: Ante el temor de las acciones que pueda llevar a cabo Superman, el vigilante de Gotham City aparece para poner a raya al superheroe de Metropolis, mientras que la opinion publica debate cual es realmente el heroe que necesitan. El hombre de acero y Batman se sumergen en una contienda territorial, pero las cosas se complican cuando una nueva y peligrosa amenaza surge rapidamente, poniendo en jaque la existencia de la humanida
    Código:
    http://www.imdb.com/title/tt2975590/
    Trailer
    [Tienes que estar registrado y conectado para ver este vínculo]


    General
    Format : Matroska
    Format version : Version 4 / Version 2
    File size : 10.3 GiB
    Duration : 2h 31mn
    Overall bit rate : 9 743 Kbps
    Encoded date : UTC 2016-07-06 18:08:19
    Writing application : mkvmerge v8.3.0 (Over the Horizon) 64bit
    Writing library : libebml v1.3.1 + libmatroska v1.4.2
    Video
    ID : 1
    Format : AVC
    Format/Info : Advanced Video Codec
    Format profile : High@L4.1
    Format settings, CABAC : Yes
    Format settings, ReFrames : 5 frames
    Codec ID : V_MPEG4/ISO/AVC
    Duration : 2h 26mn
    Bit rate : 8 953 Kbps
    Width : 1 920 pixels
    Height : 800 pixels
    Display aspect ratio : 2.40:1
    Frame rate mode : Constant
    Frame rate : 23.976 fps
    Color space : YUV
    Chroma subsampling : 4:2:0
    Bit depth : 8 bits
    Scan type : Progressive
    Bits/(Pixel*Frame) : 0.243
    Stream size : 9.16 GiB (89%)
    Writing library : x264 core 148 r2692 64f4e24
    Language : English
    Default : Yes
    Forced : No
    Audio #1
    ID : 2
    Format : AC-3
    Format/Info : Audio Coding 3
    Mode extension : CM (complete main)
    Format settings, Endianness : Big
    Codec ID : A_AC3
    Duration : 2h 31mn
    Bit rate mode : Constant
    Bit rate : 448 Kbps
    Channel(s) : 6 channels
    Channel positions : Front: L C R, Side: L R, LFE
    Sampling rate : 48.0 KHz
    Frame rate : 31.250 fps (1536 spf)
    Compression mode : Lossy
    Stream size : 486 MiB (5%)
    Title : AC3 5.1 Bluray
    Language : Spanish
    Default : Yes
    Forced : No
    Audio #2
    ID : 3
    Format : AC-3
    Format/Info : Audio Coding 3
    Mode extension : CM (complete main)
    Format settings, Endianness : Big
    Codec ID : A_AC3
    Duration : 2h 31mn
    Bit rate mode : Constant
    Bit rate : 640 Kbps
    Channel(s) : 6 channels
    Channel positions : Front: L C R, Side: L R, LFE
    Sampling rate : 48.0 KHz
    Frame rate : 31.250 fps (1536 spf)
    Compression mode : Lossy
    Stream size : 694 MiB (7%)
    Title : AC3 5.1
    Language : English
    Default : No
    Forced : No
    Text #1
    ID : 4
    Format : PGS
    Muxing mode : zlib
    Codec ID : S_HDMV/PGS
    Codec ID/Info : Picture based subtitle format used on BDs/HD-DVDs
    Duration : 2h 30mn
    Bit rate : 291 bps
    Count of elements : 104
    Stream size : 322 KiB (0%)
    Title : Forz
    Language : Spanish
    Default : Yes
    Forced : No
    Text #2
    ID : 5
    Format : PGS
    Muxing mode : zlib
    Codec ID : S_HDMV/PGS
    Codec ID/Info : Picture based subtitle format used on BDs/HD-DVDs
    Duration : 2h 31mn
    Bit rate : 6 667 bps
    Count of elements : 2558
    Stream size : 7.22 MiB (0%)
    Title : Complet
    Language : Spanish
    Default : No
    Forced : No







    Código:

    https://filejoker.net/ezkw8cpnul0d/basp3df56s.part01.rar
    https://filejoker.net/rcbkenfawn2y/basp3df56s.part02.rar
    https://filejoker.net/17msbet704tr/basp3df56s.part03.rar
    https://filejoker.net/uxesvjv5p543/basp3df56s.part04.rar
    https://filejoker.net/jy93yqo31fta/basp3df56s.part05.rar
    https://filejoker.net/d30bkhrjrp1n/basp3df56s.part06.rar
    https://filejoker.net/zbuhzl38159t/basp3df56s.part07.rar
    https://filejoker.net/p6esoqgko7bp/basp3df56s.part08.rar
    https://filejoker.net/1ppiomwjg19u/basp3df56s.part09.rar
    https://filejoker.net/4uh8az6cl810/basp3df56s.part10.rar
    https://filejoker.net/55ia23p9wdon/basp3df56s.part11.rar
    https://filejoker.net/uk0pf61xhc42/basp3df56s.part12.rar

      Fecha y hora actual: Mar Oct 17, 2017 4:52 pm