JAPAN SUFFERING

EL MEJOR FORO DE DESCARGAS DE MUSICA, JUEGOS Y VIDEOS.

JAPAN SUFFERING FORO DE CALIDAD Y CANTIDAD, SOMOS MAS QUE SOLO UN FORO...

    Jurassic World (2015)(3D H-SBS 1080p)(Ing-Lat)

    Comparte

    pomposos
    JS Guest
    JS Guest

    Mensajes : 5619
    Reputación : 0
    Fecha de inscripción : 29/10/2013

    Jurassic World (2015)(3D H-SBS 1080p)(Ing-Lat)

    Mensaje por pomposos el Lun Mayo 22, 2017 3:23 pm




    Titulo original: Jurassic World
    Ano: 2015
    Duracion: 124 min.
    Pais: Estados Unidos
    Director: Colin Trevorrow
    Guion: Colin Trevorrow, Rick Jaffa, Amanda Silver, Derek Connolly (Personajes: Michael Crichton)
    Musica: Michael Giacchino
    Fotografia: John Schwartzman
    Reparto: Chris Pratt, Bryce Dallas Howard, Nick Robinson, Vincent DOnofrio, Ty Simpkins, Irrfan Khan, Jake Johnson, Omar Sy, BD Wong, Judy Greer, Lauren Lapkus, Brian Tee, Katie McGrath, Andy Buckley, Jimmy Fallon, James DuMont, Colin Trevorrow
    Productora: Amblin Entertainment / Universal Pictures
    Genero: Ciencia ficcion. Aventuras | Dinosaurios. Secuela. 3-D
    Sinopsis: Veintidos anos despues de lo ocurrido en Jurassic Park, la isla Nublar ha sido transformada en un parque tematico, Jurassic Wold, con versiones �domesticadas� de algunos de los dinosaurios mas conocidos. Cuando todo parece ir a la perfeccion y ser el negocio del siglo, un nuevo dinosaurio de especie todavia desconocida y que es mucho mas inteligente de lo que se pensaba, comienza a causar estragos entre los visitantes del Parque.
    Código:
    http://www.imdb.com/title/tt0369610/
    Trailer
    [Tienes que estar registrado y conectado para ver este vínculo]


    General
    Format : Matroska
    Format version : Version 4 / Version 2
    File size : 12.4 GiB
    Duration : 2h 4mn
    Overall bit rate : 14.3 Mbps
    Encoded date : UTC 2015-09-27 14:22:10
    Writing application : mkvmerge v7.1.0 (Good Love) 64bit built on Jul 27 2014 13:06:55
    Writing library : libebml v1.3.0 + libmatroska v1.4.1
    Video
    ID : 1
    Format : AVC
    Format/Info : Advanced Video Codec
    Format profile : High@L4.1
    Format settings, CABAC : Yes
    Format settings, ReFrames : 2 frames
    Codec ID : V_MPEG4/ISO/AVC
    Duration : 2h 4mn
    Bit rate : 10.5 Mbps
    Width : 1 920 pixels
    Height : 960 pixels
    Display aspect ratio : 2.000
    Frame rate mode : Constant
    Frame rate : 23.976 fps
    Color space : YUV
    Chroma subsampling : 4:2:0
    Bit depth : 8 bits
    Scan type : Progressive
    Bits/(Pixel*Frame) : 0.237
    Stream size : 9.10 GiB (73%)
    Writing library : x264 core
    Language : English
    Default : Yes
    Forced : No
    Color primaries : BT.709
    Transfer characteristics : BT.709
    Matrix coefficients : BT.709
    Audio #1
    ID : 2
    Format : DTS
    Format/Info : Digital Theater Systems
    Mode : 16
    Format settings, Endianness : Big
    Codec ID : A_DTS
    Duration : 2h 4mn
    Bit rate mode : Constant
    Bit rate : 768 Kbps
    Channel(s) : 6 channels
    Channel positions : Front: L C R, Side: L R, LFE
    Sampling rate : 48.0 KHz
    Bit depth : 24 bits
    Compression mode : Lossy
    Stream size : 683 MiB (5%)
    Title : DTS Latin
    Language : Spanish
    Default : Yes
    Forced : No
    Audio #2
    ID : 3
    Format : AC-3
    Format/Info : Audio Coding 3
    Mode extension : CM (complete main)
    Format settings, Endianness : Big
    Codec ID : A_AC3
    Duration : 2h 4mn
    Bit rate mode : Constant
    Bit rate : 640 Kbps
    Channel(s) : 6 channels
    Channel positions : Front: L C R, Side: L R, LFE
    Sampling rate : 48.0 KHz
    Bit depth : 16 bits
    Compression mode : Lossy
    Stream size : 569 MiB (4%)
    Title : AC3 Latin
    Language : Spanish
    Default : No
    Forced : No
    Audio #3
    ID : 4
    Format : AC-3
    Format/Info : Audio Coding 3
    Mode extension : CM (complete main)
    Format settings, Endianness : Big
    Codec ID : A_AC3
    Duration : 2h 4mn
    Bit rate mode : Constant
    Bit rate : 640 Kbps
    Channel(s) : 6 channels
    Channel positions : Front: L C R, Side: L R, LFE
    Sampling rate : 48.0 KHz
    Bit depth : 16 bits
    Compression mode : Lossy
    Stream size : 569 MiB (4%)
    Title : AC3
    Language : English
    Default : No
    Forced : No
    Audio #4
    ID : 5
    Format : DTS
    Format/Info : Digital Theater Systems
    Mode : 16
    Format settings, Endianness : Big
    Codec ID : A_DTS
    Duration : 2h 4mn
    Bit rate mode : Constant
    Bit rate : 1 509 Kbps
    Channel(s) : 6 channels
    Channel positions : Front: L C R, Side: L R, LFE
    Sampling rate : 48.0 KHz
    Bit depth : 24 bits
    Compression mode : Lossy
    Stream size : 1.31 GiB (11%)
    Title : DTS
    Language : English
    Default : No
    Forced : No
    Text #1
    ID : 6
    Format : UTF-8
    Codec ID : S_TEXT/UTF8
    Codec ID/Info : UTF-8 Plain Text
    Title : Forzados
    Language : Spanish
    Default : Yes
    Forced : No
    Text #2
    ID : 7
    Format : UTF-8
    Codec ID : S_TEXT/UTF8
    Codec ID/Info : UTF-8 Plain Text
    Title : Completos
    Language : Spanish
    Default : No
    Forced : No






    Código:

    https://filejoker.net/sakp100myoqa/jurw3dsa4c.part01.rar
    https://filejoker.net/pcpdcksw61uy/jurw3dsa4c.part02.rar
    https://filejoker.net/ub4ljc2r1beg/jurw3dsa4c.part03.rar
    https://filejoker.net/n726bpsslbhs/jurw3dsa4c.part04.rar
    https://filejoker.net/kn7a0d5eefh6/jurw3dsa4c.part05.rar
    https://filejoker.net/9jrkqgs6kwts/jurw3dsa4c.part06.rar
    https://filejoker.net/t2n8b3ngnydi/jurw3dsa4c.part07.rar
    https://filejoker.net/wq9oszb4sutg/jurw3dsa4c.part08.rar
    https://filejoker.net/tfcqoojzjn7z/jurw3dsa4c.part09.rar
    https://filejoker.net/j9dwfwfl3bw0/jurw3dsa4c.part10.rar
    https://filejoker.net/53v83zw0d3dw/jurw3dsa4c.part11.rar
    https://filejoker.net/t4oc1syvjl9b/jurw3dsa4c.part12.rar
    https://filejoker.net/6xlr5bdbyal3/jurw3dsa4c.part13.rar
    https://filejoker.net/8d3mdym64kmp/jurw3dsa4c.part14.rar

      Fecha y hora actual: Mar Oct 17, 2017 4:54 pm