JAPAN SUFFERING

EL MEJOR FORO DE DESCARGAS DE MUSICA, JUEGOS Y VIDEOS.

JAPAN SUFFERING FORO DE CALIDAD Y CANTIDAD, SOMOS MAS QUE SOLO UN FORO...

    Guardians of the Galaxy (2014)(3D H-SBS 1080p)(Ing-Lat)

    Comparte

    pomposos
    JS Guest
    JS Guest

    Mensajes : 4728
    Reputación : 0
    Fecha de inscripción : 29/10/2013

    Guardians of the Galaxy (2014)(3D H-SBS 1080p)(Ing-Lat)

    Mensaje por pomposos el Miér Mayo 24, 2017 12:12 pm




    Titulo original: Guardians of the Galaxy
    Titulo en latino: Guardianes de la galaxia
    Ano: 2014
    Duracion: 118 min.
    Pais: Estados Unidos
    Director: James Gunn
    Guion: James Gunn, Nicole Perlman (Comic: Dan Abnett, Andy Lanning)
    Musica: Tyler Bates
    Fotografia: Ben Davis
    Reparto: Chris Pratt, Zoe Saldana, Dave Bautista, Bradley Cooper, Vin Diesel, Lee Pace, Michael Rooker, Karen Gillan, John C. Reilly, Djimon Hounsou, Glenn Close, Benicio del Toro, Laura Haddock, Peter Serafinowicz, Ophelia Lovibond, Sean Gunn, Gregg Henry, Josh Brolin
    Productora: Marvel Enterprises / Marvel Studios / Moving Picture Company (MPC) / Walt Disney Studios Motion Pictures
    Genero: Ciencia ficcion. Accion. Aventuras. Comedia | Aventura espacial. Superheroes. Comic. Marvel Comics. 3-D
    Sinopsis: El temerario aventurero Peter Quill es objeto de un implacable cazarrecompensas despues de robar una misteriosa esfera codiciada por Ronan, un poderoso villano cuya ambicion amenaza todo el universo. Para poder escapar del incansable Ronan, Quill se ve obligado a pactar una complicada tregua con un cuarteto de disparatados inadaptados: Rocket, un mapache armado con un rifle, Groot, un humanoide con forma de arbol, la letal y enigmatica Gamora y el vengativo Drax the Destroyer. Pero cuando Quill descubre el verdadero poder de la esfera, debera hacer todo lo posible para derrotar a sus extravagantes rivales en un intento desesperado de salvar el destino de la galaxia.
    Código:
    http://www.imdb.com/title/tt2015381/
    [Tienes que estar registrado y conectado para ver este vínculo]

    [center]

    General
    Complete name : Guardians of the Galaxy (2014) 3D H-SBS 1080p
    Format : Matroska
    Format version : Version 4 / Version 2
    File size : 14.2 GiB
    Duration : 2h 0mn
    Overall bit rate : 16.8 Mbps
    Movie name : Guardians of the Galaxy (2014) 3D H-SBS 1080p
    Encoded date : UTC 2014-11-18 16:04:25
    Writing application : mkvmerge v7.1.0 (Good Love) 64bit built on Jul 27 2014 13:06:55
    Writing library : libebml v1.3.0 + libmatroska v1.4.1
    Video
    ID : 1
    Format : AVC
    Format/Info : Advanced Video Codec
    Format profile : High@L4.1
    Format settings, CABAC : Yes
    Format settings, ReFrames : 4 frames
    Codec ID : V_MPEG4/ISO/AVC
    Duration : 2h 0mn
    Bit rate : 13.7 Mbps
    Width : 1 920 pixels
    Height : 1 080 pixels
    Display aspect ratio : 16:9
    Frame rate mode : Constant
    Frame rate : 23.976 fps
    Color space : YUV
    Chroma subsampling : 4:2:0
    Bit depth : 8 bits
    Scan type : Progressive
    Bits/(Pixel*Frame) : 0.275
    Stream size : 11.6 GiB (81%)
    Title : Guardians of the Galaxy (2014) 3D H-SBS 1080p
    Writing library : x264 core 133 r2334kMod a3ac64b
    Encoding settings : cabac=1 / ref=4 / deblock=1:-3:-3 / analyse=0x3:0x133 / me=tesa / subme=11 / psy=1 / fade_compensate=0.00 / psy_rd=0.95:0.00 / mixed_ref=1 / me_range=24 / chroma_me=1 / trellis=2 / 8x8dct=1 / cqm=0 / deadzone=21,11 / fast_pskip=0 / chroma_qp_offset=-2 / threads=18 / lookahead_threads=3 / sliced_threads=0 / nr=0 / decimate=0 / interlaced=0 / bluray_compat=0 / constrained_intra=0 / bframes=8 / b_pyramid=2 / b_adapt=2 / b_bias=0 / direct=3 / weightb=1 / open_gop=0 / weightp=2 / keyint=250 / keyint_min=23 / scenecut=40 / intra_refresh=0 / rc=crf / mbtree=0 / crf=16.5000 / qcomp=0.65 / qpmin=0 / qpmax=69 / qpstep=4 / frame-packing=3 / ip_ratio=1.20 / pb_ratio=1.10 / aq=1:0.90
    Language : English
    Default : Yes
    Forced : No
    Audio #1
    ID : 2
    Format : AC-3
    Format/Info : Audio Coding 3
    Mode extension : CM (complete main)
    Format settings, Endianness : Big
    Codec ID : A_AC3
    Duration : 2h 0mn
    Bit rate mode : Constant
    Bit rate : 640 Kbps
    Channel(s) : 6 channels
    Channel positions : Front: L C R, Side: L R, LFE
    Sampling rate : 48.0 KHz
    Bit depth : 16 bits
    Compression mode : Lossy
    Stream size : 553 MiB (4%)
    Title : Guardians of the Galaxy (2014) 3D H-SBS - AC3 5.1 - 640 Kbps (Blu-ray)
    Language : Spanish
    Default : Yes
    Forced : No
    Audio #2
    ID : 3
    Format : AC-3
    Format/Info : Audio Coding 3
    Mode extension : CM (complete main)
    Format settings, Endianness : Big
    Codec ID : A_AC3
    Duration : 2h 0mn
    Bit rate mode : Constant
    Bit rate : 640 Kbps
    Channel(s) : 6 channels
    Channel positions : Front: L C R, Side: L R, LFE
    Sampling rate : 48.0 KHz
    Bit depth : 16 bits
    Compression mode : Lossy
    Stream size : 553 MiB (4%)
    Title : Guardians of the Galaxy (2014) 3D H-SBS - AC3 5.1 - 640 Kbps
    Language : English
    Default : No
    Forced : No
    Audio #3
    ID : 4
    Format : DTS
    Format/Info : Digital Theater Systems
    Mode : 16
    Format settings, Endianness : Big
    Codec ID : A_DTS
    Duration : 2h 0mn
    Bit rate mode : Constant
    Bit rate : 1 509 Kbps
    Channel(s) : 6 channels
    Channel positions : Front: L C R, Side: L R, LFE
    Sampling rate : 48.0 KHz
    Bit depth : 24 bits
    Compression mode : Lossy
    Stream size : 1.27 GiB (9%)
    Title : Guardians of the Galaxy (2014) 3D H-SBS - DTS 5.1 - 1509 Kbps
    Language : English
    Default : No
    Forced : No
    Text #1
    ID : 5
    Format : UTF-8
    Codec ID : S_TEXT/UTF8
    Codec ID/Info : UTF-8 Plain Text
    Title : Guardians of the Galaxy (2014) 3D H-SBS - Subt
    Language : Spanish
    Default : No
    Forced : No
    Text #2
    ID : 6
    Format : UTF-8
    Codec ID : S_TEXT/UTF8
    Codec ID/Info : UTF-8 Plain Text
    Title : Guardians of the Galaxy (2014) 3D H-SBS - Subt Forz
    Language : Spanish
    Default : Yes
    Forced : No






    Código:

    https://filejoker.net/iy2ftj0chilv/gai3df19d.part01.rar
    https://filejoker.net/3ob4sof1w8yt/gai3df19d.part02.rar
    https://filejoker.net/12pmusdf91fx/gai3df19d.part03.rar
    https://filejoker.net/cg9x6ihh0mtc/gai3df19d.part04.rar
    https://filejoker.net/slm9iombtnhz/gai3df19d.part05.rar
    https://filejoker.net/efuseademazc/gai3df19d.part06.rar
    https://filejoker.net/174cc24mk7hf/gai3df19d.part07.rar
    https://filejoker.net/k8bmtofwjjb2/gai3df19d.part08.rar
    https://filejoker.net/rjvz3kkbe8fd/gai3df19d.part09.rar
    https://filejoker.net/woevtgsl0erh/gai3df19d.part10.rar
    https://filejoker.net/gro7vbgo13pp/gai3df19d.part11.rar
    https://filejoker.net/lf57bgx9g58d/gai3df19d.part12.rar
    https://filejoker.net/ro2xmpnf5ggv/gai3df19d.part13.rar
    https://filejoker.net/a11biknikgn8/gai3df19d.part14.rar
    https://filejoker.net/yniq23mpfc39/gai3df19d.part15.rar
    https://filejoker.net/n28qilr7c9n4/gai3df19d.part16.rar

      Fecha y hora actual: Lun Ago 21, 2017 11:43 pm