JAPAN SUFFERING

EL MEJOR FORO DE DESCARGAS DE MUSICA, JUEGOS Y VIDEOS.

JAPAN SUFFERING FORO DE CALIDAD Y CANTIDAD, SOMOS MAS QUE SOLO UN FORO...

    Rio 2 (2014)(3D H-SBS 1080p)(Ing-Lat)

    Comparte

    pomposos
    JS Guest
    JS Guest

    Mensajes : 5972
    Reputación : 0
    Fecha de inscripción : 29/10/2013

    Rio 2 (2014)(3D H-SBS 1080p)(Ing-Lat)

    Mensaje por pomposos el Miér Mayo 24, 2017 1:10 pm




    Titulo original: Rio 2
    Titulo en Latino: Rio 2
    Ano: 2014
    Duracion: 101 min.
    Pais: Estados Unidos
    Director: Carlos Saldanha
    Guion: Carlos Saldanha
    Musica: Sergio Mendes
    Fotografia: Renato Falcao
    Reparto: Animation
    Productora: Blue Sky Studios / Twentieth Century Fox Animation
    Genero: Animacion. Comedia. Aventuras. Infantil | Pajaros. 3-D. Secuela
    Código:
    http://www.imdb.com/title/tt2357291/
    Sinopsis: En �Rio 2", Blu, Perla y sus tres hijos llevan una vida perfecta. Cuando Perla decide que los ninos tienen que aprender a vivir como autenticas aves, insiste en que la familia se aventure a viajar al Amazonas. Mientras Blu trata de encajar con sus nuevos vecinos, le preocupa la posibilidad de perder a Perla y a los chicos ante la llamada de la selva.
    Trailer
    [Tienes que estar registrado y conectado para ver este vínculo]


    General
    Complete name : Rio 2 (2014) 3D H-SBS 1080p.mkv
    Format : Matroska
    Format version : Version 2
    File size : 9.18 GiB
    Duration : 1h 41mn
    Overall bit rate : 13.0 Mbps
    Movie name : Rio 2 (2014) 3D H-SBS 1080p
    Encoded date : UTC 2014-07-06 15:38:19
    Writing application : mkvmerge v5.7.0 ('The Whirlwind') built on Jul 8 2012 20:08:51
    Writing library : libebml v1.2.3 + libmatroska v1.3.0
    Video
    ID : 1
    Format : AVC
    Format/Info : Advanced Video Codec
    Format profile : High@L4.1
    Format settings, CABAC : Yes
    Format settings, ReFrames : 4 frames
    Muxing mode : Header stripping
    Codec ID : V_MPEG4/ISO/AVC
    Duration : 1h 41mn
    Bit rate : 10.1 Mbps
    Width : 1 920 pixels
    Height : 1 080 pixels
    Display aspect ratio : 16:9
    Frame rate mode : Constant
    Frame rate : 23.976 fps
    Color space : YUV
    Chroma subsampling : 4:2:0
    Bit depth : 8 bits
    Scan type : Progressive
    Bits/(Pixel*Frame) : 0.204
    Stream size : 7.16 GiB (78%)
    Title : Rio 2 (2014) 3D H-SBS 1080p
    Writing library : x264 core 142 r2389kMod 956c8d8
    Language : English
    Default : Yes
    Forced : No
    Audio #1
    ID : 2
    Format : AC-3
    Format/Info : Audio Coding 3
    Mode extension : CM (complete main)
    Format settings, Endianness : Big
    Muxing mode : Header stripping
    Codec ID : A_AC3
    Duration : 1h 41mn
    Bit rate mode : Constant
    Bit rate : 448 Kbps
    Channel(s) : 6 channels
    Channel positions : Front: L C R, Side: L R, LFE
    Sampling rate : 48.0 KHz
    Bit depth : 16 bits
    Compression mode : Lossy
    Stream size : 324 MiB (3%)
    Title : AC3 5.1
    Language : Spanish
    Default : Yes
    Forced : No
    Audio #2
    ID : 3
    Format : AC-3
    Format/Info : Audio Coding 3
    Mode extension : CM (complete main)
    Format settings, Endianness : Big
    Muxing mode : Header stripping
    Codec ID : A_AC3
    Duration : 1h 41mn
    Bit rate mode : Constant
    Bit rate : 640 Kbps
    Channel(s) : 6 channels
    Channel positions : Front: L C R, Side: L R, LFE
    Sampling rate : 48.0 KHz
    Bit depth : 16 bits
    Compression mode : Lossy
    Stream size : 463 MiB (5%)
    Title : AC3 5.1
    Language : English
    Default : No
    Forced : No
    Audio #3
    ID : 4
    Format : DTS
    Format/Info : Digital Theater Systems
    Format profile : ES
    Mode : 16
    Format settings, Endianness : Big
    Muxing mode : Header stripping
    Codec ID : A_DTS
    Duration : 1h 41mn
    Bit rate mode : Constant
    Bit rate : 1 509 Kbps
    Channel(s) : 6 channels
    Channel positions : Front: L C R, Side: L R, LFE
    Sampling rate : 48.0 KHz
    Bit depth : 24 bits
    Compression mode : Lossy
    Delay relative to video : 11ms
    Stream size : 1.07 GiB (12%)
    Title : DTS 5.1
    Language : English
    Default : No
    Forced : No
    Text
    ID : 5
    Format : UTF-8
    Codec ID : S_TEXT/UTF8
    Codec ID/Info : UTF-8 Plain Text
    Title : Rio 2 (2014) 3D
    Language : Spanish
    Default : No
    Forced : No







    Código:

    https://filejoker.net/3qte08r7q633/r2i3dfvas.part01.rar
    https://filejoker.net/wmmmjjwphh1l/r2i3dfvas.part02.rar
    https://filejoker.net/ioc7appyt6d5/r2i3dfvas.part03.rar
    https://filejoker.net/q7o7923d3mzg/r2i3dfvas.part04.rar
    https://filejoker.net/lxzh9zpvq8oj/r2i3dfvas.part05.rar
    https://filejoker.net/eucpj4mvyq9r/r2i3dfvas.part06.rar
    https://filejoker.net/8oyy33uaytsa/r2i3dfvas.part07.rar
    https://filejoker.net/78i6h9dtvef2/r2i3dfvas.part08.rar
    https://filejoker.net/3yu2yygtlgsk/r2i3dfvas.part09.rar
    https://filejoker.net/6fs839554x7w/r2i3dfvas.part10.rar

      Fecha y hora actual: Miér Dic 13, 2017 5:01 pm