JAPAN SUFFERING

EL MEJOR FORO DE DESCARGAS DE MUSICA, JUEGOS Y VIDEOS.

JAPAN SUFFERING FORO DE CALIDAD Y CANTIDAD, SOMOS MAS QUE SOLO UN FORO...

    G.I. Joe Retaliation (2013) 3D H-SBS 1080p (Ing-Lat)

    Comparte

    pomposos
    JS Guest
    JS Guest

    Mensajes : 4742
    Reputación : 0
    Fecha de inscripción : 29/10/2013

    G.I. Joe Retaliation (2013) 3D H-SBS 1080p (Ing-Lat)

    Mensaje por pomposos el Miér Mayo 24, 2017 8:37 pm




    TITULO ORIGINAL: G.I. Joe: Retaliation (G.I. Joe 2) (GIJOE 2) (G.I.JOE 3D)
    ANO: 2013
    DURACION: 110 min.
    PAIS: USA
    DIRECTOR: Jon Chu
    GUION: Rhett Reese, Paul Wernick
    REPARTO: Channing Tatum, Ray Park, Lee Byung-hun, Dwayne "The Rock" Johnson, Bruce Willis, Elodie Yung, Adrianne Palicki, Joseph Mazello, D.J. Cotrona, Ray Stevenson, Arnold Vosloo, RZA, Walton Goggins, Jonathan Pryce
    PRODUCTORA: Paramount Pictures / Hasbro / Silver Watch Productions / Skydance Productions
    GENERO: Accion. Ciencia ficcion | Secuela. Videojuego
    Sinopsis: Los GI Joe no solo tendran que verselas con su enemigo mortal, la organizacion criminal Cobra, sino que ademas se veran obligados a lidiar con las amenazas y traiciones dentro de su propio gobierno, que ponen en peligro su existencia.
    Código:
    http://www.imdb.com/title/tt1583421/
    Trailer
    [Tienes que estar registrado y conectado para ver este vínculo]


    General
    Format : Matroska
    Format version : Version 3 / Version 2
    File size : 13.1 GiB
    Duration : 1h 50mn
    Overall bit rate mode : Variable
    Overall bit rate : 17.0 Mbps
    Encoded date : UTC 2013-07-17 21:50:45
    Writing application : mkvmerge v5.7.0 (The Whirlwind) built on Jul 8 2012 20:08:51
    Writing library : libebml v1.2.3 + libmatroska v1.3.0
    Video
    ID : 1
    Format : AVC
    Format/Info : Advanced Video Codec
    Format profile : High@L4.1
    MultiView_Count : 2
    MultiView_Layout : Side by Side (left eye first)
    Format settings, CABAC : Yes
    Format settings, ReFrames : 4 frames
    Codec ID : V_MPEG4/ISO/AVC
    Duration : 1h 50mn
    Bit rate : 11.2 Mbps
    Width : 1 920 pixels
    Height : 1 080 pixels
    Display aspect ratio : 16:9
    Frame rate mode : Constant
    Frame rate : 23.976 fps
    Color space : YUV
    Chroma subsampling : 4:2:0
    Bit depth : 8 bits
    Scan type : Progressive
    Writing library : x264 core 135 r2345 f0c1c53
    Language : English
    Default : Yes
    Forced : No
    Audio #1
    ID : 2
    Format : AC-3
    Format/Info : Audio Coding 3
    Mode extension : CM (complete main)
    Format settings, Endianness : Big
    Codec ID : A_AC3
    Duration : 1h 50mn
    Bit rate mode : Constant
    Bit rate : 448 Kbps
    Channel(s) : 6 channels
    Channel positions : Front: L C R, Side: L R, LFE
    Sampling rate : 48.0 KHz
    Bit depth : 16 bits
    Compression mode : Lossy
    Stream size : 353 MiB (3%)
    Title : AC3 5.1
    Language : Spanish
    Default : Yes
    Forced : No
    Audio #2
    ID : 3
    Format : AC-3
    Format/Info : Audio Coding 3
    Mode extension : CM (complete main)
    Format settings, Endianness : Big
    Codec ID : A_AC3
    Duration : 1h 50mn
    Bit rate mode : Constant
    Bit rate : 640 Kbps
    Channel(s) : 6 channels
    Channel positions : Front: L C R, Side: L R, LFE
    Sampling rate : 48.0 KHz
    Bit depth : 16 bits
    Compression mode : Lossy
    Stream size : 505 MiB (4%)
    Title : AC3 5.1
    Language : English
    Default : No
    Forced : No
    Audio #3
    ID : 4
    Format : TrueHD
    Codec ID : A_TRUEHD
    Duration : 1h 50mn
    Bit rate mode : Variable
    Maximum bit rate : 6 204 Kbps
    Channel(s) : 8 channels
    Channel positions : Front: L C R, Side: L R, Back: L R, LFE
    Sampling rate : 48.0 KHz
    Compression mode : Lossless
    Title : TrueHD 7.1
    Language : English
    Default : No
    Forced : No
    Text #1
    ID : 5
    Format : VobSub
    Muxing mode : zlib
    Codec ID : S_VOBSUB
    Codec ID/Info : The same subtitle format used on DVDs
    Title : Forz
    Language : Spanish 3D
    Default : Yes
    Forced : No
    Text #2
    ID : 6
    Format : VobSub
    Muxing mode : zlib
    Codec ID : S_VOBSUB
    Codec ID/Info : The same subtitle format used on DVDs
    Title : Complet
    Language : Spanish 3D
    Default : No
    Forced : No







    Código:

    https://filejoker.net/79q4uskcn2uc/gij3dretc2.part01.rar
    https://filejoker.net/kuz5d8upqxul/gij3dretc2.part02.rar
    https://filejoker.net/tus12skosibi/gij3dretc2.part03.rar
    https://filejoker.net/cs9qqq9zqlil/gij3dretc2.part04.rar
    https://filejoker.net/iwsvs39xa9cv/gij3dretc2.part05.rar
    https://filejoker.net/0yjrtlgrmgze/gij3dretc2.part06.rar
    https://filejoker.net/2gehi5k9ogql/gij3dretc2.part07.rar
    https://filejoker.net/20nyqbvgl8ec/gij3dretc2.part08.rar
    https://filejoker.net/yled43sqghjy/gij3dretc2.part09.rar
    https://filejoker.net/6j589lw50uax/gij3dretc2.part10.rar
    https://filejoker.net/mcu07yln8rci/gij3dretc2.part11.rar
    https://filejoker.net/rnd8zduk7yfg/gij3dretc2.part12.rar
    https://filejoker.net/taui07qtff97/gij3dretc2.part13.rar
    https://filejoker.net/rlpeno6k0tj1/gij3dretc2.part14.rar
    https://filejoker.net/wbec7uo8v7u1/gij3dretc2.part15.rar

      Fecha y hora actual: Mar Ago 22, 2017 11:09 am