JAPAN SUFFERING

EL MEJOR FORO DE DESCARGAS DE MUSICA, JUEGOS Y VIDEOS.

JAPAN SUFFERING FORO DE CALIDAD Y CANTIDAD, SOMOS MAS QUE SOLO UN FORO...

    Fantastic Beasts and Where to Find Them (2016) 3D H-SBS 1080p (Ing-Lat)

    Comparte

    pomposos
    JS Guest
    JS Guest

    Mensajes : 5972
    Reputación : 0
    Fecha de inscripción : 29/10/2013

    Fantastic Beasts and Where to Find Them (2016) 3D H-SBS 1080p (Ing-Lat)

    Mensaje por pomposos el Vie Mayo 26, 2017 4:37 pm




    Titulo original: Fantastic Beasts and Where to Find Them
    Ano: 2016
    Duracion: 133 min.
    Pais: Reino Unido
    Director: David Yates
    Reparto: Eddie Redmayne, Katherine Waterston, Dan Fogler, Alison Sudol, Colin Farrell, Carmen Ejogo, Samantha Morton, Ezra Miller, Ron Perlman, Johnny Depp, Zoe Kravitz, Gemma Chan, Jon Voight, Christine Marzano, Lucie Pohl
    Productora: Coproduccion Reino Unido-EEUU; Heyday Films / Warner Bros.
    Genero: Fantastico. Aventuras | Spin-off. Magia
    Sinopsis: Ano 1926. Newt Scamander acaba de completar un viaje por todo el mundo para encontrar y documentar una extraordinaria seleccion de criaturas magicas. Llegando a Nueva York para hacer una breve parada en su camino, donde podria haber llegado y salido sin incidentes�pero no para un Muggle llamado Jacob, un caso perdido de magia, y la fuga de algunas criaturas fantasticas de Newt, que podrian causar problemas el mundo magico y en el mundo Muggle.
    Código:
    http://www.imdb.com/title/tt3183660/?ref_=nv_sr_1
    Trailer
    [Tienes que estar registrado y conectado para ver este vínculo]


    General
    Format : Matroska
    Format version : Version 4 / Version 2
    File size : 16.5 GiB
    Duration : 2 h 12 min
    Overall bit rate : 17.7 Mb/s
    Movie name : Fantastic Beasts and Where to Find Them (2016) 3D H-SBS 1080p
    Encoded date : UTC 2017-03-15 19:57:39
    Writing application : mkvmerge v9.9.0 (Pick Up) 64bit
    Writing library : libebml v1.3.4 + libmatroska v1.4.5
    Video
    ID : 1
    Format : AVC
    Format/Info : Advanced Video Codec
    Format profile : High@L4.1
    Format settings, CABAC : Yes
    Format settings, ReFrames : 2 frames
    Codec ID : V_MPEG4/ISO/AVC
    Duration : 2 h 12 min
    Bit rate : 15.5 Mb/s
    Width : 1 920 pixels
    Height : 1 080 pixels
    Display aspect ratio : 16:9
    Frame rate mode : Constant
    Frame rate : 23.976 (24000/1001) FPS
    Color space : YUV
    Chroma subsampling : 4:2:0
    Bit depth : 8 bits
    Scan type : Progressive
    Bits/(Pixel*Frame) : 0.312
    Stream size : 14.2 GiB (86%)
    Title : Fantastic Beasts and Where to Find Them (2016) 3D H-SBS 1080p
    Language : English
    Default : Yes
    Forced : No
    Audio #1
    ID : 2
    Format : AC-3
    Format/Info : Audio Coding 3
    Mode extension : CM (complete main)
    Format settings, Endianness : Big
    Codec ID : A_AC3
    Duration : 2 h 12 min
    Bit rate mode : Constant
    Bit rate : 448 kb/s
    Channel(s) : 6 channels
    Channel positions : Front: L C R, Side: L R, LFE
    Sampling rate : 48.0 kHz
    Frame rate : 31.250 FPS (1536 spf)
    Bit depth : 16 bits
    Compression mode : Lossy
    Stream size : 426 MiB (3%)
    Title : AC3 5.1 Bluray
    Language : Spanish
    Default : Yes
    Forced : No
    Audio #2
    ID : 3
    Format : DTS
    Format/Info : Digital Theater Systems
    Mode : 16
    Format settings, Endianness : Big
    Codec ID : A_DTS
    Duration : 2 h 12 min
    Bit rate mode : Constant
    Bit rate : 1 509 kb/s
    Channel(s) : 6 channels
    Channel positions : Front: L C R, Side: L R, LFE
    Sampling rate : 48.0 kHz
    Frame rate : 93.750 FPS (512 spf)
    Bit depth : 16 bits
    Compression mode : Lossy
    Stream size : 1.40 GiB (9%)
    Title : DTS
    Language : English
    Default : No
    Forced : No
    Audio #3
    ID : 4
    Format : AC-3
    Format/Info : Audio Coding 3
    Mode extension : CM (complete main)
    Format settings, Endianness : Big
    Codec ID : A_AC3
    Duration : 2 h 12 min
    Bit rate mode : Constant
    Bit rate : 448 kb/s
    Channel(s) : 6 channels
    Channel positions : Front: L C R, Side: L R, LFE
    Sampling rate : 48.0 kHz
    Frame rate : 31.250 FPS (1536 spf)
    Bit depth : 16 bits
    Compression mode : Lossy
    Stream size : 426 MiB (3%)
    Title : AC3 5.1
    Language : English
    Default : No
    Forced : No
    Text #1
    ID : 5
    Format : UTF-8
    Codec ID : S_TEXT/UTF8
    Codec ID/Info : UTF-8 Plain Text
    Duration : 2 h 1 min
    Bit rate : 0 b/s
    Count of elements : 24
    Stream size : 733 Bytes (0%)
    Title : Subtit_Forz
    Language : Spanish
    Default : Yes
    Forced : No
    Text #2
    ID : 6
    Format : UTF-8
    Codec ID : S_TEXT/UTF8
    Codec ID/Info : UTF-8 Plain Text
    Duration : 2 h 12 min
    Bit rate : 38 b/s
    Count of elements : 1327
    Stream size : 36.9 KiB (0%)
    Title : Subtit_Complet
    Language : Spanish
    Default : No
    Forced : No







    Código:

    https://filejoker.net/5pojodyovtav/fabe3d56r.part01.rar
    https://filejoker.net/anykfyinxvrm/fabe3d56r.part02.rar
    https://filejoker.net/ohcfawiupaab/fabe3d56r.part03.rar
    https://filejoker.net/cn5whal83iro/fabe3d56r.part04.rar
    https://filejoker.net/6ypo57040yzi/fabe3d56r.part05.rar
    https://filejoker.net/ctsuep6gnd5p/fabe3d56r.part06.rar
    https://filejoker.net/xfswafbjtokh/fabe3d56r.part07.rar
    https://filejoker.net/t1ddbtl3mcte/fabe3d56r.part08.rar
    https://filejoker.net/7wed12itv7km/fabe3d56r.part09.rar
    https://filejoker.net/84j4o5nsfjv8/fabe3d56r.part10.rar
    https://filejoker.net/7ado1moxntlz/fabe3d56r.part11.rar
    https://filejoker.net/7iqqrqgth3vd/fabe3d56r.part12.rar
    https://filejoker.net/58jj0feg1d8h/fabe3d56r.part13.rar
    https://filejoker.net/cy8zlnydquk7/fabe3d56r.part14.rar
    https://filejoker.net/lhoucgg54myf/fabe3d56r.part15.rar
    https://filejoker.net/jre0ocst24gg/fabe3d56r.part16.rar
    https://filejoker.net/iau0mah1kxmn/fabe3d56r.part17.rar
    https://filejoker.net/m2hy90pjuupp/fabe3d56r.part18.rar

      Fecha y hora actual: Miér Dic 13, 2017 9:12 am