JAPAN SUFFERING

EL MEJOR FORO DE DESCARGAS DE MUSICA, JUEGOS Y VIDEOS.

JAPAN SUFFERING FORO DE CALIDAD Y CANTIDAD, SOMOS MAS QUE SOLO UN FORO...

    Finding Nemo (2003) 3D H-SBS 1080p (Ing-Lat)

    Comparte

    pomposos
    JS Guest
    JS Guest

    Mensajes : 5619
    Reputación : 0
    Fecha de inscripción : 29/10/2013

    Finding Nemo (2003) 3D H-SBS 1080p (Ing-Lat)

    Mensaje por pomposos el Dom Mayo 28, 2017 5:33 am




    TITULO ORIGINAL: Finding Nemo
    ANO: 2003
    DURACION: 101 min.
    PAIS: USA
    DIRECTOR: Andrew Stanton, Lee Unkrich
    GUION: Andrew Stanton, Bob Peterson, David Reynolds
    REPARTO: Animation
    PRODUCTORA: Walt Disney Pictures / Pixar Animation Studios
    GENERO: Animacion. Aventuras. Comedia. Infantil | Aventuras marinas
    Sinopsis: El pececillo Nemo, que es hijo unico, es muy querido y protegido por su padre. Despues de ser capturado en un arrecife australiano va a parar a la pecera de la oficina de un dentista de Sidney. Su timido padre emprendera una peligrosa aventura para rescatarlo. Pero Nemo y sus nuevos amigos tienen tambien un astuto plan para escapar de la pecera y volver al mar.
    Código:
    http://www.imdb.com/title/tt0266543/
    Trailer
    [Tienes que estar registrado y conectado para ver este vínculo]


    General
    Format : Matroska
    Format version : Version 2
    File size : 8.35 GiB
    Duration : 1h 40mn
    Overall bit rate : 11.8 Mbps
    Encoded date : UTC 2012-10-30 23:00:49
    Writing application : mkvmerge v5.7.0 (The Whirlwind) built on Jul 8 2012 20:08:51
    Writing library : libebml v1.2.3 + libmatroska v1.3.0
    Video
    ID : 1
    Format : AVC
    Format/Info : Advanced Video Codec
    Format profile : High@L4.1
    Format settings, CABAC : Yes
    Format settings, ReFrames : 2 frames
    Codec ID : V_MPEG4/ISO/AVC
    Duration : 1h 40mn
    Bit rate : 10.3 Mbps
    Width : 1 920 pixels
    Height : 1 080 pixels
    Display aspect ratio : 16:9
    Frame rate : 23.976 fps
    Color space : YUV
    Chroma subsampling : 4:2:0
    Bit depth : 8 bits
    Scan type : Progressive
    Bits/(Pixel*Frame) : 0.208
    Stream size : 7.28 GiB (87%)
    Writing library : x264 core
    Language : English
    Default : Yes
    Forced : No
    Color primaries : BT.709-5, BT.1361, IEC 61966-2-4, SMPTE RP177
    Transfer characteristics : BT.709-5, BT.1361
    Matrix coefficients : BT.709-5, BT.1361, IEC 61966-2-4 709, SMPTE RP177
    Audio #1
    ID : 2
    Format : AC-3
    Format/Info : Audio Coding 3
    Mode extension : CM (complete main)
    Codec ID : A_AC3
    Duration : 1h 40mn
    Bit rate mode : Constant
    Bit rate : 640 Kbps
    Channel(s) : 6 channels
    Channel positions : Front: L C R, Side: L R, LFE
    Sampling rate : 48.0 KHz
    Bit depth : 16 bits
    Compression mode : Lossy
    Stream size : 462 MiB (5%)
    Language : Spanish
    Default : Yes
    Forced : No
    Audio #2
    ID : 3
    Format : AC-3
    Format/Info : Audio Coding 3
    Mode extension : CM (complete main)
    Codec ID : A_AC3
    Duration : 1h 40mn
    Bit rate mode : Constant
    Bit rate : 640 Kbps
    Channel(s) : 6 channels
    Channel positions : Front: L C R, Side: L R, LFE
    Sampling rate : 48.0 KHz
    Bit depth : 16 bits
    Compression mode : Lossy
    Stream size : 462 MiB (5%)
    Language : English
    Default : No
    Forced : No
    Text
    ID : 4
    Format : UTF-8
    Codec ID : S_TEXT/UTF8
    Codec ID/Info : UTF-8 Plain Text
    Language : Spanish
    Default : No
    Forced : No







    Código:

    https://filejoker.net/bob19ermkzuq/fne3dv2f.part01.rar
    https://filejoker.net/0oiv6gvbj29z/fne3dv2f.part02.rar
    https://filejoker.net/rdn2s73dlk08/fne3dv2f.part03.rar
    https://filejoker.net/gpdrpk66m5nw/fne3dv2f.part04.rar
    https://filejoker.net/pp0neho2qw8q/fne3dv2f.part05.rar
    https://filejoker.net/qvufr2sqwold/fne3dv2f.part06.rar
    https://filejoker.net/bt0tpm5x963n/fne3dv2f.part07.rar
    https://filejoker.net/waja8chklcc0/fne3dv2f.part08.rar
    https://filejoker.net/14dknlrbuycj/fne3dv2f.part09.rar
    https://filejoker.net/j8hb79wmu9kc/fne3dv2f.part10.rar

      Fecha y hora actual: Mar Oct 17, 2017 4:51 pm